Browse Collections Artists Sources   Search Dates

Add Show    List Management    Help


Phish 08/07/93
Darien Lake Performing Arts Center, Darien Center, NY
Comments Add Comment    Source Collectors    Add to Collection    Add to Want List    History
Source # 90728 Other Sources
Entered by Jason Sobel
Checksums all_ffp
Disc Counts 2 / 3
Media Size
Date Circulated
Date Added
03/09/2008
03/10/2008
Source Summary AKG 463 (@ 48); Sony R300-> SD744T-> CD Wave-> Wavelab (Normalize, 48 to 44 kHz)-> FLAC Frontend (Level 6) 
Source Information - Download Text | Download Zip
Phish
August 7, 1993
Darien Lake Performing Arts Center
Darien Center, NY

Source: AKG 463 (16/48)
Transfer: Sony R300-> SD744T-> CD Wave-> Wavelab (Normalize|16/44)-> FLAC Frontend (Level 6)-> FLAC

Set One:
01. Llama
02. Bouncing Around the Room
03. Poor Heart->
04. Stash->
05. Makisupa Policeman
06. Reba->
07. Maze
08. Colonel Forbin's Ascent->
09. Famous Mockingbird
10. Cavern

Set Two:
01. Also Sprach Zarathustra->
02. Mike's Song->
03. Kung->
04. Mike's Song->
05. TMWSIY->
06. Avenu Malkenu->
07. The Sloth->
08. Sparkle
09. My Friend My Friend->
10. McGrupp and the Watchful Hosemasters->
11. Purple Rain
12. Run Like an Antelope
13. E: Carolina
14. E: La Grange

FLAC Fingerprint
--------------------------------------
phish1993-08-07s2t14.flac:4e1fe2dcec4147055dc380499ec13492
phish1993-08-07s1t01.flac:82cc4242ff77f3af053534a030867e92
phish1993-08-07s1t02.flac:33d7a338aa955101de06929604241a4a
phish1993-08-07s1t03.flac:b7e2531566fbf4c1d544a82c32f7eb53
phish1993-08-07s1t04.flac:05d6bec69dd086fa7773502e6de05f09
phish1993-08-07s1t05.flac:e77bdc7bb4ee765c6afff719b9594a0f
phish1993-08-07s1t06.flac:c7a4f514cff5cd9e542eef1451b10ca0
phish1993-08-07s1t07.flac:843eebc750ffa60d60435a23be9b603e
phish1993-08-07s1t08.flac:8b842678927fad983709d94a99f46b9e
phish1993-08-07s1t09.flac:142b3b9b1edd9172531c84163de77e36
phish1993-08-07s1t10.flac:4347fa632198540bd8553c1918c197d1
phish1993-08-07s2t01.flac:51d5f5c3fc56930cb1a14f9329075acc
phish1993-08-07s2t02.flac:655db60441f4eae777c3af624c5c5809
phish1993-08-07s2t03.flac:c88ed3017c95f1a852b868b4ad5f5c0b
phish1993-08-07s2t04.flac:068dba4943a2433c0347769bd77941fc
phish1993-08-07s2t05.flac:ebbc4170401caa508a2460d5f8f49274
phish1993-08-07s2t06.flac:3dfcd3499dac1e63fc76572e753691d3
phish1993-08-07s2t07.flac:b6b384085a87f2d5f64591936a4d4dba
phish1993-08-07s2t08.flac:8d55c8c8e297a66f58d84cf14a09dc68
phish1993-08-07s2t09.flac:ea4522e036d48f4ab17941a049a7c5ce
phish1993-08-07s2t10.flac:267463f4be8e58e1314e3a020d33cca9
phish1993-08-07s2t11.flac:ed9756aff9151ba577fd923ea7f64eb3
phish1993-08-07s2t12.flac:c9f7e57583ebf306031f5e20af15c7ee
phish1993-08-07s2t13.flac:b74dd8e22f7eb87147ce56a9379596bb

Sector Boundary Verification
------------------------------------------
length expanded size cdr WAVE problems filename
5:12.42 55135628 --- -- ---xx phish1993-08-07s1t01.flac
3:35.41 38022476 --- -- ---xx phish1993-08-07s1t02.flac
2:20.20 24743084 --- -- ---xx phish1993-08-07s1t03.flac
12:23.65 131218124 --- -- ---xx phish1993-08-07s1t04.flac
5:55.68 62781980 --- -- ---xx phish1993-08-07s1t05.flac
10:52.03 115019900 --- -- ---xx phish1993-08-07s1t06.flac
9:26.67 100000028 --- -- ---xx phish1993-08-07s1t07.flac
11:45.11 124387916 --- -- ---xx phish1993-08-07s1t08.flac
6:10.44 65371532 --- -- ---xx phish1993-08-07s1t09.flac
5:02.70 53437484 --- -- ---xx phish1993-08-07s1t10.flac
4:02.33 42766460 --- -- ---xx phish1993-08-07s2t01.flac
11:12.65 118693724 --- -- ---xx phish1993-08-07s2t02.flac
1:50.72 19573388 --- -- ---xx phish1993-08-07s2t03.flac
1:50.66 19559276 --- -- ---xx phish1993-08-07s2t04.flac
3:38.72 38624588 --- -- ---xx phish1993-08-07s2t05.flac
3:07.29 33055052 --- -- ---xx phish1993-08-07s2t06.flac
3:33.01 37575596 --- -- ---xx phish1993-08-07s2t07.flac
4:07.22 43622588 --- -- ---xx phish1993-08-07s2t08.flac
7:00.51 74207996 --- -- ---xx phish1993-08-07s2t09.flac
11:10.40 118282124 --- -- ---xx phish1993-08-07s2t10.flac
6:47.63 71943020 --- -- ---xx phish1993-08-07s2t11.flac
13:38.27 144358748 --- -- ---xx phish1993-08-07s2t12.flac
1:45.59 18660812 --- -- ---xx phish1993-08-07s2t13.flac
4:44.17 50137628 --- -- ---xx phish1993-08-07s2t14.flac
151:16.73 1601179152 B (totals for 24 files, 0.6310 overall compression ratio)
Show Checksums
all_ffp
phish1993-08-07s2t14.flac:4e1fe2dcec4147055dc380499ec13492
phish1993-08-07s1t01.flac:82cc4242ff77f3af053534a030867e92
phish1993-08-07s1t02.flac:33d7a338aa955101de06929604241a4a
phish1993-08-07s1t03.flac:b7e2531566fbf4c1d544a82c32f7eb53
phish1993-08-07s1t04.flac:05d6bec69dd086fa7773502e6de05f09
phish1993-08-07s1t05.flac:e77bdc7bb4ee765c6afff719b9594a0f
phish1993-08-07s1t06.flac:c7a4f514cff5cd9e542eef1451b10ca0
phish1993-08-07s1t07.flac:843eebc750ffa60d60435a23be9b603e
phish1993-08-07s1t08.flac:8b842678927fad983709d94a99f46b9e
phish1993-08-07s1t09.flac:142b3b9b1edd9172531c84163de77e36
phish1993-08-07s1t10.flac:4347fa632198540bd8553c1918c197d1
phish1993-08-07s2t01.flac:51d5f5c3fc56930cb1a14f9329075acc
phish1993-08-07s2t02.flac:655db60441f4eae777c3af624c5c5809
phish1993-08-07s2t03.flac:c88ed3017c95f1a852b868b4ad5f5c0b
phish1993-08-07s2t04.flac:068dba4943a2433c0347769bd77941fc
phish1993-08-07s2t05.flac:ebbc4170401caa508a2460d5f8f49274
phish1993-08-07s2t06.flac:3dfcd3499dac1e63fc76572e753691d3
phish1993-08-07s2t07.flac:b6b384085a87f2d5f64591936a4d4dba
phish1993-08-07s2t08.flac:8d55c8c8e297a66f58d84cf14a09dc68
phish1993-08-07s2t09.flac:ea4522e036d48f4ab17941a049a7c5ce
phish1993-08-07s2t10.flac:267463f4be8e58e1314e3a020d33cca9
phish1993-08-07s2t11.flac:ed9756aff9151ba577fd923ea7f64eb3
phish1993-08-07s2t12.flac:c9f7e57583ebf306031f5e20af15c7ee
phish1993-08-07s2t13.flac:b74dd8e22f7eb87147ce56a9379596bb

Comments
Add Comment
Other Sources (comments)
AKG 460/ck63 > DAT > ZA2 >... (2) FOB AKG 460/ck63 > D7;... (0) FOB AKG460b/ck61 > Custom... (1) flac16; (FOB) AKG... (0)
Date User Comment