Browse Collections Artists Sources   Search Dates

Add Show    List Management    Help


Grateful Dead 03/23/94
Nassau Coliseum, Uniondale, NY
Comments Add Comment    Source Collectors    Add to Collection    Add to Want List    History
Source # 90740 Other Sources
Entered by Matt Vernon
Checksums ffp , flac-md5
Disc Counts 2 / 2
Media Size
Date Circulated
Date Added
03/12/2008
03/11/2008
Source Summary flac16; Recording info: (OTS/Behind SBD/DFC/mics @ 90deg/stand @ 10') AKG 460b/ck61 -> custom pre-amp -> Teac DA-P20 Transfer info: dat (master) -> DA-20mkII -> AR coax -> Audiophile 24/96 -> Wavelab 5.0 -> CD Wave -> FLAC(6). recorded by: Dave Flaschner. transfer: Chris Davis (3/11/08) 
  Archive
Source Information - Download Text | Download Zip
Grateful Dead
Nassau Coliseum
Uniondale, NY
March 23, 1994

source:  AKG 460b/ck61 -> custom pre-amp -> Teac DA-P20
location:  OTS / Behind SBD / DFC / mic @ 90deg / stand @ 10'
recorded by:  Dave Flaschner

transfer:  dat (master) -> DA-20mkII -> AR coax -> Audiophile 24/96 -> Wavelab 5.0 -> CD Wave -> FLAC(6)
transfer:  Chris Davis (3/11/08)

Disc 1:        (77:51)
Set 1:
01.  (02:40)   tuning
02.  (11:48)   Shakedown Street*
03.  (12:14)   Little Red Rooster
04.  (11:18)   Row Jimmy
05.  (05:32)   El Paso @
06.  (04:41)   Might As Well
07.  (05:21)   The Promised Land

Set 2:
08.  (01:58)   tuning
09.  (07:22)   China Cat Sunflower ->
10.  (04:46)   I Know You Rider
11.  (10:11)   Women Are Smarter


Disc 2:        (71:55)
Set 2 (cont):
01.  (01:49)   tuning
02.  (06:56)   So Many Roads
03.  (10:39)   Truckin' ->
04.  (07:41)   Drums ->
05.  (16:50)   Space ->
06.  (04:40)   I Need a Miracle ->
07.  (08:47)   Standing on the Moon ->
08.  (07:01)   Good Lovin'
09.  (02:36)   crowd

Encore:
10.  (04:56)   U.S. Blues


@Weir on acoustic
*digital fuzz/noise at (02:24)

    length     expanded size    cdr  WAVE problems  fmt   ratio  filename
     2:40.22       28275788 B   ---   --   -----    wav  1.0000  gd1994-03-23d1t01.wav
    11:48.14      124924172 B   ---   --   -----    wav  1.0000  gd1994-03-23d1t02.wav
    12:14.04      129487052 B   ---   --   -----    wav  1.0000  gd1994-03-23d1t03.wav
    11:18.47      119709788 B   ---   --   -----    wav  1.0000  gd1994-03-23d1t04.wav
     5:32.72       58734188 B   ---   --   -----    wav  1.0000  gd1994-03-23d1t05.wav
     4:41.69       49730732 B   ---   --   -----    wav  1.0000  gd1994-03-23d1t06.wav
     5:21.54       56751452 B   ---   --   -----    wav  1.0000  gd1994-03-23d1t07.wav
     1:58.64       20965772 B   ---   --   -----    wav  1.0000  gd1994-03-23d1t08.wav
     7:22.18       78011180 B   ---   --   -----    wav  1.0000  gd1994-03-23d1t09.wav
     4:46.53       50575100 B   ---   --   -----    wav  1.0000  gd1994-03-23d1t10.wav
    10:11.64      107930972 B   ---   --   -----    wav  1.0000  gd1994-03-23d1t11.wav
     1:49.71       19394636 B   ---   --   -----    wav  1.0000  gd1994-03-23d2t01.wav
     6:56.69       73544732 B   ---   --   -----    wav  1.0000  gd1994-03-23d2t02.wav
    10:39.65      112872524 B   ---   --   -----    wav  1.0000  gd1994-03-23d2t03.wav
     7:41.56       81452156 B   ---   --   -----    wav  1.0000  gd1994-03-23d2t04.wav
    16:50.53      178288700 B   ---   --   -----    wav  1.0000  gd1994-03-23d2t05.wav
     4:40.74       49566092 B   ---   --   -----    wav  1.0000  gd1994-03-23d2t06.wav
     8:47.62       93108668 B   ---   --   -----    wav  1.0000  gd1994-03-23d2t07.wav
     7:01.42       74363228 B   ---   --   -----    wav  1.0000  gd1994-03-23d2t08.wav
     2:36.02       27523148 B   ---   --   -----    wav  1.0000  gd1994-03-23d2t09.wav
     4:56.68       52374380 B   ---   --   -----    wav  1.0000  gd1994-03-23d2t10.wav
   149:59.68     1587584460 B                            1.0000  (21 files)

Show Checksums
ffp
gd1994-03-23d1t01.flac:73e5316c9b8f5afda442d044eda7ed83
gd1994-03-23d1t02.flac:175e4b93e550931459b8cd771923af2e
gd1994-03-23d1t03.flac:4ba271eaea31e59f95f288322511bdf7
gd1994-03-23d1t04.flac:0fa400a563b85d36be3be6ac8fdf3c10
gd1994-03-23d1t05.flac:ab66b3c73f2a4b715f4d17ecd72ea38e
gd1994-03-23d1t06.flac:617f0bce19d54cf686fe78443599612c
gd1994-03-23d1t07.flac:cdf81804dd3ff2442d7d8a472b29340f
gd1994-03-23d1t08.flac:6c669577ada18f3e89f50432afcd6eda
gd1994-03-23d1t09.flac:68165fe55c161108dfa9dc708d40ed90
gd1994-03-23d1t10.flac:9da7768d91f513985b0c36244c6c0782
gd1994-03-23d1t11.flac:8c9712a59b76dcdafe81d76a63071421
gd1994-03-23d2t01.flac:365c0747bfe62e7d954b584384698b9e
gd1994-03-23d2t02.flac:4ca9ba869905f0985dca4c92d85a3c70
gd1994-03-23d2t03.flac:1af9ef9c690c3b4f0d6456e7ffd13aec
gd1994-03-23d2t04.flac:04f3e13df6c905d231a44712d1b45d1c
gd1994-03-23d2t05.flac:c2b8446f67a278ad63ee7d5dfbb93b64
gd1994-03-23d2t06.flac:4fd223af0e8a5176f6cc075b842c03d2
gd1994-03-23d2t07.flac:28456b636c6e22e4578f70fd7cf23cb8
gd1994-03-23d2t08.flac:d3a00c8a2cf487fddaf38b508d834a69
gd1994-03-23d2t09.flac:1f645dfd233538cbc6084d1bcdaa1014
gd1994-03-23d2t10.flac:6a48307bad8179682ac507c2f2d1d3cc
flac-md5
2d34ca8db284798e1ecb9ba02cc913c0 *gd1994-03-23d1t01.flac
1dd48e60566a1e2162ae99473e33d44d *gd1994-03-23d1t02.flac
b15bd30f4a0d72a5d99cbb83d8644a5b *gd1994-03-23d1t03.flac
ea5f7e7922fc3d1a14f7cfa3881b30d4 *gd1994-03-23d1t04.flac
580aec29d353152c358399b78f3aa7ae *gd1994-03-23d1t05.flac
4e343388286a28fc9f7b419bf78ca636 *gd1994-03-23d1t06.flac
5df7c5940e12558b1eb49efcc7a37835 *gd1994-03-23d1t07.flac
434d65bac17fd994da4ae77000fa002d *gd1994-03-23d1t08.flac
904e286b288be4e9047755c323de0da6 *gd1994-03-23d1t09.flac
ef3fde83d3fe24a20bb264edca055e2d *gd1994-03-23d1t10.flac
4b12bf00fe28f597c07ac31dceca3b85 *gd1994-03-23d1t11.flac
9f07b6f7513af5e05732ecabd89cdf80 *gd1994-03-23d2t01.flac
30c8bcc376aa555a89e73b625ccde78b *gd1994-03-23d2t02.flac
3ce083691a99135d9240420542d3ff66 *gd1994-03-23d2t03.flac
b0a5ba2eb853a5be95f1d0a5530f05ac *gd1994-03-23d2t04.flac
1af3aab132d8168336e1de3009f1155d *gd1994-03-23d2t05.flac
0ecf689ed1d099a2caf60f5114f01a51 *gd1994-03-23d2t06.flac
00588ff4dcdce2cefb665bfef2affbc9 *gd1994-03-23d2t07.flac
d9880e9acea21b041a66f24839a69f9d *gd1994-03-23d2t08.flac
87bab1d191956b0661090b87896b3a08 *gd1994-03-23d2t09.flac
d68242be470ff2363d0975a3dae39e5a *gd1994-03-23d2t10.flac

Comments
Add Comment
Other Sources (comments)
Set 1: SBD... (2) Source: Audience (Naks,... (0) AUD fob (in hat) Schoeps... (0) flac16; All Set 1 &... (0) flac16; Source:... (0) flac16 44.1khz ... (0) flac16/48kHz; Set 1... (0)
Date User Comment