Browse Collections Artists Sources   Search Dates

Add Show    List Management    Help


Phish 07/17/99
Oswego County Airport, Volney, NY
Comments Add Comment    Source Collectors    Add to Collection    Add to Want List    History
Source # 90835 Other Sources
Entered by Terry Watts
Checksums FFP , WAV
Disc Counts 2 / 3
Media Size
Date Circulated
Date Added
03/16/2008
03/16/2008
Source Summary flac16, 44kHz; (FOB) Schoeps mk21 > kc5 > cmc6 > Lunatec V2 > Apogee AD-1000 > HHb; Tascam DA-20MKII > Tascam HD-P2 > r8brain v1.9 (48 to 44.1 kHz) > Samplitude SE v9.1.1 (fades, tracking) > FLAC v1.2.1 (Level 8); Taped by Derek Gregory; Transferred by Jason Sobel 
Source Information - Download Text | Download Zip
Phish
July 17, 1999
Oswego County Airport
Volney, NY

source:
(FOB) Schoeps mk21 > kc5 > cmc6 > Lunatec V2 > Apogee AD-1000 > HHb
(set 1 recorded at 44.1 kHz, set 2 recorded at 48 kHz)

transfer:
Tascam DA-20MKII > Tascam HD-P2 > CF card > usb 2.0 > pc > r8brain v1.9 (resample to set 2 to 44.1 kHz) > Samplitude SE v9.1.1 (fades, tracking) > FLAC v1.2.1 (Level 8)

FLAC tags added with metaflac v1.2.1

recorded by Derek Gregory
transferred by Jason Sobel ([email protected])
seeded March 16, 2008

notes:
The original 48 kHz .wav file (of set 2) from the DAT transfer has been archived, and is available upon request.
Big thanks to Eric McRoberts for letting me borrow his DATs!

Disc 1 - [67:34]
Set I
01 - [01:00] - intro
02 - [06:47] - Tube >
03 - [06:41] - Boogie On Reggae Woman
04 - [10:24] - Birds of a Feather
05 - [06:11] - Guelah Papyrus
06 - [02:35] - My Sweet One
07 - [08:37] - Roggae
08 - [19:17] - Tweezer ->
09 - [06:02] - Have Mercy ->

Disc 2 - [61:57]
Set I continued
01 - [12:25] - Taste
02 - [08:37] - Character Zero
Set II
03 - [08:01] - Funky Bitch *
04 - [06:56] - On My Knees *
05 - [02:23] - Blues Jam *
06 - [23:35] - Down with Disease

Disc 3 - [65:41]
Set II continued
01 - [09:02] - Wolfman's Brother ->
02 - [09:13] - Sneakin' Sally Through the Alley >
03 - [09:59] - Timber Ho
04 - [21:46] - You Enjoy Myself
05 - [03:24] - encore break
06 - [08:09] - The Squirming Coil
07 - [04:08] - Tweezer Reprise

* with Son Seals

---------------------------------------------------------------------------------------------------

SHNtool len mode output:

    length     expanded size   cdr  WAVE problems filename
     1:00.32       10659308    ---   --   ---xx   ph1999-07-17d1t01.flac
     6:47.25       71853644    ---   --   ---xx   ph1999-07-17d1t02.flac
     6:40.67       70717628    ---   --   ---xx   ph1999-07-17d1t03.flac
    10:24.30      110144204    ---   --   ---xx   ph1999-07-17d1t04.flac
     6:11.14       65477372    ---   --   ---xx   ph1999-07-17d1t05.flac
     2:34.40       27259724    ---   --   ---xx   ph1999-07-17d1t06.flac
     8:36.36       91107116    ---   --   ---xx   ph1999-07-17d1t07.flac
    19:17.00      204094844    ---   --   ---xx   ph1999-07-17d1t08.flac
     6:01.64       63830972    ---   --   ---xx   ph1999-07-17d1t09.flac
    12:25.09      131439212    ---   --   ---xx   ph1999-07-17d2t01.flac
     8:37.19       91243532    ---   --   ---xx   ph1999-07-17d2t02.flac
     8:00.65       84824924    ---   --   ---xx   ph1999-07-17d2t03.flac
     6:56.32       73457708    ---   --   ---xx   ph1999-07-17d2t04.flac
     2:22.66       25204076    ---   --   ---xx   ph1999-07-17d2t05.flac
    23:34.44      249533132    ---   --   ---xx   ph1999-07-17d2t06.flac
     9:01.73       95604140    ---   --   ---xx   ph1999-07-17d3t01.flac
     9:13.16       97586876    ---   --   ---xx   ph1999-07-17d3t02.flac
     9:59.17      105703628    ---   --   ---xx   ph1999-07-17d3t03.flac
    21:45.55      230331404    ---   --   ---xx   ph1999-07-17d3t04.flac
     3:23.38       35898620    ---   --   ---xx   ph1999-07-17d3t05.flac
     8:08.66       86238476    ---   --   ---xx   ph1999-07-17d3t06.flac
     4:07.71       43737836    ---   --   ---xx   ph1999-07-17d3t07.flac
   195:11.54     2065948376 B                     (totals for 22 files, 0.5096 overall compression ratio)

Show Checksums
FFP
ph1999-07-17d1t01.flac:46892045a44e5a076d28737550f239ec
ph1999-07-17d1t02.flac:3a993a49f5c466b8f8092a407c027805
ph1999-07-17d1t03.flac:2fb4a3a0495ce31ddb1594cc5ee2275b
ph1999-07-17d1t04.flac:e41009cdd36e222dc38a3bd60f80f728
ph1999-07-17d1t05.flac:43b899d92aca5e6d0added393eb43646
ph1999-07-17d1t06.flac:191503a9743d4ce08111ca74199d3d28
ph1999-07-17d1t07.flac:8421c6b3faeed9ce3e608b645e9c7421
ph1999-07-17d1t08.flac:9b6f2a7731d40fbe5153b1e46af7698f
ph1999-07-17d1t09.flac:0f10b9df37168a43775cb7233ce1cadc
ph1999-07-17d2t01.flac:bc03bfb3c667c8ae58ae41908af7bb29
ph1999-07-17d2t02.flac:efe5ff6f2d1de9ac2f4963d5f5842ba2
ph1999-07-17d2t03.flac:e48e070afd4ed99b337d052f4d3b8628
ph1999-07-17d2t04.flac:95374bb75ad9a13f1e1156edccf2bfa4
ph1999-07-17d2t05.flac:220adb292eead7f5d6f59e829692a51c
ph1999-07-17d2t06.flac:5cb65e3e14745e0d3568aeb6135eb8cf
ph1999-07-17d3t01.flac:d418bb74fb614418b97fb533206d2d3a
ph1999-07-17d3t02.flac:6cb3941b9b24b263c13f8e6b14c9f3c9
ph1999-07-17d3t03.flac:682e6938981a3a796297a8d191acd6c4
ph1999-07-17d3t04.flac:5df4281cd0d1477e8e8d48e1f3e9b082
ph1999-07-17d3t05.flac:35584415aae2bce2676f72107d9c5655
ph1999-07-17d3t06.flac:6b0f1238f6fec8c921d78684f60b29bc
ph1999-07-17d3t07.flac:c94d1adc21cb696cff38ffc07432807c
WAV
d0b757e38f13e34fe087ca41b912d2e8 *ph1999-07-17d1t01.wav
46155d23ed96b40a270a3dfb683a15e3 *ph1999-07-17d1t02.wav
05444e4ac0d89254a0f977ba79f04987 *ph1999-07-17d1t03.wav
df3e3dff6d561d8d63b5cd4ce863f876 *ph1999-07-17d1t04.wav
104535a11f4245475195cabf1903f5fc *ph1999-07-17d1t05.wav
ae338bcde25c4ca257c76c3b3d2664e3 *ph1999-07-17d1t06.wav
8231b43624298132fcdb3098f8b7b2c8 *ph1999-07-17d1t07.wav
1f284bdaab870af547242bcf0d843acb *ph1999-07-17d1t08.wav
4f231c424f89fa70455c679262c4d334 *ph1999-07-17d1t09.wav
c81b7d70b7e65b52a146a0e780e3ebbf *ph1999-07-17d2t01.wav
88413a3340563b3887620bca32cba709 *ph1999-07-17d2t02.wav
7e0613f3cbea67aec491a61c9f156c76 *ph1999-07-17d2t03.wav
c762af0abe5ff52c492ee6495b08ce54 *ph1999-07-17d2t04.wav
84417dfe581391539a76f6ce9f2235a3 *ph1999-07-17d2t05.wav
0b8951083f283cb5381f0e587a9f4d91 *ph1999-07-17d2t06.wav
39fa44062849bb0b0f5567f8d9431b9a *ph1999-07-17d3t01.wav
ba00e7ba4c3240756c1c24aad066ab1f *ph1999-07-17d3t02.wav
28e133dc87633dfc674797b29477f0f2 *ph1999-07-17d3t03.wav
84e7adcd4b8094f1dc515481c79842f3 *ph1999-07-17d3t04.wav
e9741a7939994fa8f3dee0c05f4e65de *ph1999-07-17d3t05.wav
a2b1dbf14c221d105e42c9681b3dfb8e *ph1999-07-17d3t06.wav
4041c250ca05ac9fe183a3a7f06ba4ee *ph1999-07-17d3t07.wav

Comments
Add Comment
Other Sources (comments)
Schoeps M222?; transfer by... (1) Schoeps cmbi + mk2s >... (3) Unknown Source...... (6) Uknown source (Fixed... (3) flac16, 44kHz; AKG... (0) flac16, 48kHz;... (0) flac16, 44kHz;... (0) flac16, 44kHz; AKG... (0) flac16, 48kHz; AKG... (0) flac16, 44kHz; (FOB)... (0) flac16, 48kHz; set 2... (0) flac16, 48kHz;... (0) flac16, 44kHz;... (0)
Date User Comment