Browse Collections Artists Sources   Search Dates

Add Show    List Management    Help


Phish 06/13/94
Memorial Hall, Kansas City, KS
Comments Add Comment    Source Collectors    Add to Collection    Add to Want List    History
Source # 90841 Other Sources
Entered by Jason Sobel
Checksums all_ffp , all_wav_md5
Disc Counts 2 / 2
Media Size
Date Circulated
Date Added
03/16/2008
03/16/2008
Source Summary AKG 460b/ck61 > custom pre-amp > Teac DA-P20 (@ 48 kHz); Tascam DA-20MKII > Tascam HD-P2 > Samplitude SE v9.1.1 (de-emphasis, fades, patches, tracking) > r8brain v1.9 (48 to 44.1 kHz) > FLAC v1.2.1 (Level 8); Taped by Tom McMinn; Transferred by Jason Sobel 
Source Information - Download Text | Download Zip
Phish
June 13, 1994
Memorial Hall
Kansas City, KS

source:
AKG 460b/ck61 > custom pre-amp > Teac DA-P20 (@ 48 kHz)
(recorded from the section, mics ORTF)

transfer:
Tascam DA-20MKII > Tascam HD-P2 > CF card > usb 2.0 > pc > Samplitude SE v9.1.1 (de-emphasis, fades, patches, tracking) > r8brain v1.9 (resample to 44.1 kHz) > FLAC v1.2.1 (Level 8)

FLAC tags added with metaflac v1.2.1

recorded by Tom McMinn
transferred by Jason Sobel ([email protected])
seeded March 16, 2008

notes:
The original DAT recording was made with pre-emphasis.
The Waves Q10 Paragraphic EQ (v5.0) plug-in was used to de-emphasize the recording.
The original 48 kHz .wav files from the DAT transfer have been archived, and are available upon request.
Big thanks to Eliot Byron for letting me borrow his DAT tape!

Disc 1 - [74:11]
Set I
01 - [02:15] - Buried Alive >
02 - [02:15] - Poor Heart >
03 - [04:49] - Sample in a Jar
04 - [13:40] - The Divided Sky
05 - [04:55] - Wolfman's Brother >
06 - [03:26] - Dinner and a Movie
07 - [11:41] - Stash
08 - [03:39] - Ginseng Sullivan *
09 - [06:25] - Julius
Set II
10 - [11:54] - Mike's Song >
11 - [02:53] - I Am Hydrogen >
12 - [06:21] - Weekapaug Groove

Disc 2 - [68:17]
Set II continued
01 - [09:13] - Esther
02 - [04:21] - Cavern
03 - [13:43] - Reba
04 - [08:29] - Jesus Just Left Chicago
05 - [06:43] - Scent of a Mule
06 - [02:59] - Big Ball Jam
07 - [01:03] - HYHU >
08 - [06:06] - Terrapin >
09 - [00:53] - HYHU
10 - [09:16] - Slave to the Traffic Light
11 - [00:44] - encore break
12 - [04:47] - Golgi Apparatus

* performed acoustic, without microphones

patch notes:
There was a fairly large cut on Tom's AKG source, towards the end of "Slave",
and one small drop-out during "Golgi".
I patched these spots with the following source:

Akg 460/ck61's
http://db.etree.org/shn/28444

The patch source was de-emphasized, because it had clearly been recorded with pre-amphasis.
The patch source was used at the following spots:

Slave to the Traffic Light
[07:23] to [09:16]

encore break
[00:00] to [00:13]

Golgi Apparatus
[02:37] to [02:42]

---------------------------------------------------------------------------------------------------

SHNtool len mode output:

    length     expanded size   cdr  WAVE problems filename
     2:15.34       23894012    ---   --   ---xx   ph1994-06-13d1t01.flac
     2:14.38       23727020    ---   --   ---xx   ph1994-06-13d1t02.flac
     4:48.48       50916140    ---   --   ---xx   ph1994-06-13d1t03.flac
    13:39.61      144615116    ---   --   ---xx   ph1994-06-13d1t04.flac
     4:54.72       52030988    ---   --   ---xx   ph1994-06-13d1t05.flac
     3:25.47       36272588    ---   --   ---xx   ph1994-06-13d1t06.flac
    11:40.42      123578828    ---   --   ---xx   ph1994-06-13d1t07.flac
     3:38.36       38539916    ---   --   ---xx   ph1994-06-13d1t08.flac
     6:25.27       67977548    ---   --   ---xx   ph1994-06-13d1t09.flac
    11:54.17      125989628    ---   --   ---xx   ph1994-06-13d1t10.flac
     2:52.58       30477260    ---   --   ---xx   ph1994-06-13d1t11.flac
     6:21.00       67208444    ---   --   ---xx   ph1994-06-13d1t12.flac
     9:13.09       97570412    ---   --   ---xx   ph1994-06-13d2t01.flac
     4:21.19       46085132    ---   --   ---xx   ph1994-06-13d2t02.flac
    13:43.31      145250156    ---   --   ---xx   ph1994-06-13d2t03.flac
     8:28.41       89707676    ---   --   ---xx   ph1994-06-13d2t04.flac
     6:43.24       71145692    ---   --   ---xx   ph1994-06-13d2t05.flac
     2:59.07       31592108    ---   --   ---xx   ph1994-06-13d2t06.flac
     1:03.32       11188508    ---   --   ---xx   ph1994-06-13d2t07.flac
     6:05.67       64543628    ---   --   ---xx   ph1994-06-13d2t08.flac
     0:52.47        9283388    ---   --   ---xx   ph1994-06-13d2t09.flac
     9:15.40       97996124    ---   --   ---xx   ph1994-06-13d2t10.flac
     0:44.21        7811036    ---   --   ---xx   ph1994-06-13d2t11.flac
     4:46.44       50553932    ---   --   ---xx   ph1994-06-13d2t12.flac
   142:28.37     1507955280 B                     (totals for 24 files, 0.5164 overall compression ratio)
Show Checksums
all_ffp
ph1994-06-13d1t01.flac:00f373bd64a942973cb4a2dcb2286980
ph1994-06-13d1t02.flac:35827c4a050504bfeffd88477b3d4c52
ph1994-06-13d1t03.flac:f63868b44a5e4a455d71ba253e71f026
ph1994-06-13d1t04.flac:ba4a25bb1487692b5f76be96f0529e5f
ph1994-06-13d1t05.flac:e3392a7e246fd7da58f8bfaee148113f
ph1994-06-13d1t06.flac:4206d7876974a40d81cdf2ecf0013d9e
ph1994-06-13d1t07.flac:6da382587a764fc892054812b300ec10
ph1994-06-13d1t08.flac:883968cc513d6c04145c1124b2c90cec
ph1994-06-13d1t09.flac:a9000e94ac4254c6b72e6a756da93fdd
ph1994-06-13d1t10.flac:df956f741ef8b12f24c06dfaf7eb610b
ph1994-06-13d1t11.flac:96878919327ce8097101e5cdc2fcf0d1
ph1994-06-13d1t12.flac:f423179efea90829ffb055e8544d9648
ph1994-06-13d2t01.flac:ded5ba07803c8d53b14c2f3adf19feb5
ph1994-06-13d2t02.flac:bf344a122746d5a01fdd1e2a42dbac63
ph1994-06-13d2t03.flac:23772cacaf7fffcb5944f78cf0cff740
ph1994-06-13d2t04.flac:360c5e70ab3668d4c087f7fe9b45c5f6
ph1994-06-13d2t05.flac:ac466e455f3ade6a7d6a2231a91c9a19
ph1994-06-13d2t06.flac:4830e0a96f8780148086aaf0c3ba60de
ph1994-06-13d2t07.flac:acb56dc46cec92ff8510b051b8a06a88
ph1994-06-13d2t08.flac:4541084f1926ba44badc3c1ca991fb48
ph1994-06-13d2t09.flac:f9979888a5ea9b7e7a5233a436d44138
ph1994-06-13d2t10.flac:e36f425058cd86c2301ac9c518690066
ph1994-06-13d2t11.flac:c4a3ef23629eca9aa0f396ac3a69238e
ph1994-06-13d2t12.flac:25682589783c52276b30c9c54137316a
all_wav_md5
b1b62e6dffc0a49495bb6867c1c184e5 *ph1994-06-13d1t01.wav
8c6fdb4d6431781631947e77bc26deb9 *ph1994-06-13d1t02.wav
89b9b6433536d55de2de854b055d0766 *ph1994-06-13d1t03.wav
13d0d21f3bc40ac34b72626743ca71d3 *ph1994-06-13d1t04.wav
276d205251fb3d774337760233ee2757 *ph1994-06-13d1t05.wav
172f8f7fb303970ac36690d14fc83fc7 *ph1994-06-13d1t06.wav
bf545c8b12b1268b01883ef8e0abbb62 *ph1994-06-13d1t07.wav
89a0f0d359e1eca31cee6b74026797bf *ph1994-06-13d1t08.wav
07fa05d9ddf7f7bb9627cf05e1ae1aa8 *ph1994-06-13d1t09.wav
3535da098b1c2475c57dfbc1988a9998 *ph1994-06-13d1t10.wav
1d089387abf54025e437cd57e31bf2c6 *ph1994-06-13d1t11.wav
033b8f13b621685240668856aaa1e25b *ph1994-06-13d1t12.wav
e0e07ad1b8410f406fced49eb7d8f935 *ph1994-06-13d2t01.wav
e1a5919e5b2b1b59634659161bde196f *ph1994-06-13d2t02.wav
fe523d6cf51196441e545fd3d894a09b *ph1994-06-13d2t03.wav
8fc27d5f9f06f36b80a7c1db8042a6e9 *ph1994-06-13d2t04.wav
d88a42e3de55f67f98bb2dacf0f997bd *ph1994-06-13d2t05.wav
4568fdd35b86f87e511e5cdbb1e75969 *ph1994-06-13d2t06.wav
f2f448e46b2d40006cd1f211f2c5b601 *ph1994-06-13d2t07.wav
0082a83479919a15f10b3b04d3fd937d *ph1994-06-13d2t08.wav
6b3067fe2b59bbcafbbffda3b3edb43a *ph1994-06-13d2t09.wav
aa8b30acf485424fd4e8d41a773a7977 *ph1994-06-13d2t10.wav
f1f99f78f0ee892e243e76ac8f8c80e7 *ph1994-06-13d2t11.wav
576a572b826ed62bcebfaa7b2c6731e4 *ph1994-06-13d2t12.wav

Comments
Add Comment
Other Sources (comments)
DAUD (0) AKG 460/ck61 > DAT; Fostex... (0) flac16; AKG... (0)
Date User Comment