Browse Collections Artists Sources   Search Dates

Add Show    List Management    Help


Grateful Dead 12/30/81
Oakland Auditorium Arena, Oakland, CA
Comments Add Comment    Source Collectors    Add to Collection    Add to Want List    History
Source # 90866 Other Sources
Entered by Matt Vernon
Checksums flac-md5 , ffp
Disc Counts 2 / 3
Media Size
Date Circulated
Date Added
03/01/2008
03/18/2008
Source Summary flac16; SBD>MC>DAT>CD>SHN>TLH>FLAC patched with: D2T01 Unknown Aud>MC>?>C>Sony TC-KE500S>TheCard>CoolEdit>TLH>FLAC and D2T02-3 SBD>Cm>C>C>C>C>Sony TC-KE500S>TheCard>CoolEdit>TLH>FLAC  
  Archive
Source Information - Download Text | Download Zip
Grateful Dead
Oakland Auditorium
Oakland, CA
December 30, 1981

D1 SBD>MC>DAT>CD>SHN>TLH>FLAC (= SHNID 8211)
D2T01 Unknown Aud>MC>?>C>Sony TC-KE500S>TheCard>CoolEdit>TLH>FLAC
D2T02-3 SBD>Cm>C>C>C>C>Sony TC-KE500S>TheCard>CoolEdit>TLH>FLAC
D2T04-7 SBD>Cm>PCM>Dat>CD>Cool Edit Pro>CD>SHN>TLH>FLAC (= SHNID 8211)
D3 SBD>Cm>Reel>Cass>CD>SHN>TLH>FLAC (= SHNID 8211)

1st Set

D1T01 Jack Straw
D1T02 They Love Each Other
D1T03 On the Road Again
D1T04 Dire Wolf ->
D1T05 Little Red Rooster
D1T06 Cumberland Blues
D1T07 It's All Over Now
D1T08 Althea
D1T09 Lazy Lightning ->
D1T10 Supplication
D1T11 Might as Well

2nd Set

D2T01 Me & Bobby McGee * #
D2T02 Lady Di * #
D2T03 Barbara Allen * #
D2T04 Feel like a Stranger #
D2T05 Ramble on Rose
D2T06 Estimated Prophet-> jam->
D2T07 Drums -> //
D3T01 Space ->
D3T02 Not Fade Away ->
D3T03 Black Peter ->
D3T04 Johnny B. Goode

Encore

D3T05 Casey Jones


Notes-

* with Joan Baez
# without Brent

This is different from SHNID 8211 in that it provides the first three songs of the second set which are missing from 8211.

Left Channel drop @ :23 D1T03
Brief Cut between D2T07 and D3T01 (Drums>Space) where the source changes
Audio discs for SHNID 8211 provided by Charlie Miller

Seeded to ll by Thomas Hempel, [email protected] 3/08

    length     expanded size    cdr  WAVE problems  fmt   ratio  filename
     6:23.64       67711772 B   ---   --   -----    wav  1.0000  gd81-12-30d1t01.wav
     7:08.67       75656828 B   ---   --   -----    wav  1.0000  gd81-12-30d1t02.wav
     4:05.06       43232156 B   ---   --   -----    wav  1.0000  gd81-12-30d1t03.wav
     3:22.35       35715164 B   ---   --   -----    wav  1.0000  gd81-12-30d1t04.wav
     9:17.35       98337164 B   ---   --   -----    wav  1.0000  gd81-12-30d1t05.wav
     5:59.28       63393500 B   ---   --   -----    wav  1.0000  gd81-12-30d1t06.wav
     8:23.65       88882124 B   ---   --   -----    wav  1.0000  gd81-12-30d1t07.wav
     9:28.09      100216412 B   ---   --   -----    wav  1.0000  gd81-12-30d1t08.wav
     3:33.68       37733180 B   ---   --   -----    wav  1.0000  gd81-12-30d1t09.wav
     6:06.11       64588316 B   ---   --   -----    wav  1.0000  gd81-12-30d1t10.wav
     4:42.20       49791884 B   ---   --   -----    wav  1.0000  gd81-12-30d1t11.wav
     4:17.70       45499484 B   ---   --   -----    wav  1.0000  gd81-12-30d2t01.wav
     5:59.62       63473468 B   ---   --   -----    wav  1.0000  gd81-12-30d2t02.wav
     6:10.43       65369180 B   ---   --   -----    wav  1.0000  gd81-12-30d2t03.wav
     9:48.08      103742060 B   ---   --   -----    wav  1.0000  gd81-12-30d2t04.wav
     6:53.38       72942620 B   ---   --   -----    wav  1.0000  gd81-12-30d2t05.wav
    14:29.46      153399836 B   ---   --   -----    wav  1.0000  gd81-12-30d2t06.wav
    11:07.51      117778796 B   ---   --   -----    wav  1.0000  gd81-12-30d2t07.wav
     9:28.67      100352828 B   ---   --   -----    wav  1.0000  gd81-12-30d3t01.wav
     9:06.57       96448508 B   ---   --   -----    wav  1.0000  gd81-12-30d3t02.wav
     9:44.26      103078796 B   ---   --   -----    wav  1.0000  gd81-12-30d3t03.wav
     5:33.41       58837676 B   ---   --   -----    wav  1.0000  gd81-12-30d3t04.wav
     5:15.23       55620140 B   ---   --   -----    wav  1.0000  gd81-12-30d3t05.wav
   166:27.40     1761801892 B                            1.0000  (23 files)

No errors occurred.


Show Checksums
flac-md5
e442ac2dc17371e05b7ca5fe991fb108 *gd81-12-30d1t01.flac
40f5178758bea69a9676c228d6e4df63 *gd81-12-30d1t02.flac
55d8cffab4d55c7fe3a085aee01e8411 *gd81-12-30d1t03.flac
0ef3babccdc00ce15a789bb990a22d9d *gd81-12-30d1t04.flac
3720226aba409c1ce02f5ed799c97769 *gd81-12-30d1t05.flac
269e4dfdcf8858a6f0e97681428ae48a *gd81-12-30d1t06.flac
3ac14e1854e6bfc586b62a86e9c61513 *gd81-12-30d1t07.flac
9994c04d070be55968d10b37930e4ddc *gd81-12-30d1t08.flac
43d147b9ffc7923418690ea7529ac40a *gd81-12-30d1t09.flac
3f9c7e9012c1f3776b4e876e6b8288c3 *gd81-12-30d1t10.flac
2617c9be1656434041e1a2b7f7593ae7 *gd81-12-30d1t11.flac
4680f86be2cb69919306bfd5bb1da6e6 *gd81-12-30d2t01.flac
b23c52fe7d8ad624521a36841aeb2048 *gd81-12-30d2t02.flac
a4b4028901ab4af9c753184104b6b3d6 *gd81-12-30d2t03.flac
25cf1eb9224a1e3f8fcf7d5a609e5648 *gd81-12-30d2t04.flac
5010016f2406eb9a212870910a7bb672 *gd81-12-30d2t05.flac
f4a1e46f18d01b63e997d4359e47b43e *gd81-12-30d2t06.flac
0bf3cdefc2cef67fa1436832b127d4b2 *gd81-12-30d2t07.flac
6e54974e5f79218a20c13b6a5e7b3fa8 *gd81-12-30d3t01.flac
002d34bd1635e5c04950a7ca756825e8 *gd81-12-30d3t02.flac
c9a3e35e8bd154a9792201660d86691f *gd81-12-30d3t03.flac
0a1cef23662cb4b42aa1d39b7198dbc1 *gd81-12-30d3t04.flac
8694f0f6c6c53cf0bf1aa2ec794c9fa2 *gd81-12-30d3t05.flac
ffp
gd81-12-30d1t01.flac:d5a61e4c76b1974ee9e6b4a6229ec3f2
gd81-12-30d1t02.flac:e11b01a00ce73e05ac55d62949a4bb85
gd81-12-30d1t03.flac:3837181020914647efbc4eb2caf5a44b
gd81-12-30d1t04.flac:cc7f6b41754005ad79fd831ab878424b
gd81-12-30d1t05.flac:58467e1c6c465c7f65a6b7a66e54c2ae
gd81-12-30d1t06.flac:13d11faff21643217f092e66e46f9e4f
gd81-12-30d1t07.flac:7371c0d52de255309597d56ff5f37389
gd81-12-30d1t08.flac:e2b304cf219ea374f10042aa71d364f5
gd81-12-30d1t09.flac:8eabe4f1033c12fd5dd31385dd17b7be
gd81-12-30d1t10.flac:7800624d1aae1fae5f46afd1a156a8b5
gd81-12-30d1t11.flac:b9c5450b4384014f46988b505cf27717
gd81-12-30d2t01.flac:635b4656a892db81adff09f0f15329da
gd81-12-30d2t02.flac:a312c2a63eaa926eb0cd3288d91fc826
gd81-12-30d2t03.flac:c06000469cf160de17ebe05b303ad359
gd81-12-30d2t04.flac:f1fe3905548d519c24fdf217431a0810
gd81-12-30d2t05.flac:37d14183129ee1527b920855273917c9
gd81-12-30d2t06.flac:afce1dff665b8689bff541409ef30d96
gd81-12-30d2t07.flac:e10c14e98afc63c7598c00f0afd85cb8
gd81-12-30d3t01.flac:0979ec72be041189f773708333f79d07
gd81-12-30d3t02.flac:7f7c40371ca4958dd2f844d1ed9ada0f
gd81-12-30d3t03.flac:d1ed28e7c2a5de78e387023b26cbfe97
gd81-12-30d3t04.flac:a848524affeeaca41427e303df85964e
gd81-12-30d3t05.flac:aed52b27623800f3d0b9334c03ad43b3

Comments
Add Comment
Other Sources (comments)
1st Set SBD> MC> DAT> CD;... (0) flac16; Source:... (0) flac16; Recording... (0) flac16; Set 1 + Set... (0)
Date User Comment