Browse Collections Artists Sources   Search Dates

Add Show    List Management    Help


Allman Brothers Band 07/19/79
Merriweather Post Pavilion, Columbia, MD
Comments Add Comment    Source Collectors    Add to Collection    Add to Want List    History
Source # 90874 Other Sources
Entered by Matt Vernon
Checksums flac-md5 , ffp
Disc Counts 2 / 2
Media Size
Date Circulated
Date Added
01/04/2008
03/18/2008
Source Summary FM > Master Cassette > CD
CD > ? > FLAC 
Source Information - Download Text | Download Zip
Allman Brothers Band
7-19-79
Merriweather Post Pavillion
Columbia,MD


FM > Master Cassette > CD



CD1
1.don't want you no more>> 2:32
2. it's not my cross to bear 5:09
3. can't take it with you 3:55
4. blue sky 4:36
5. need your love so bad 4:34
6. crazy love 3:32
7. just ain't easy>> 4:55
8. in memory of elizabeth reed 10:52
9. statesboro blues 4:21

CD2
1. try it one more time 5:07
2. one way out 7:56
3. southbound 7:08
4. whipping post 11:11
encore
5. ramblin' man 6:51
6. midnight rider 3:09

seeded by Patrick Mulvey

Please note: ABBase at www.allmanbrothersband.com lists "Pegasus"
after "Whipping Post" and "Will The Circle Be Unbroken" after "Midnight Rider."

    length     expanded size   cdr  WAVE problems filename
     2:32.14       26845772    ---   --   ---xx   abb1979-07-19d1t01.flac
     5:09.50       54625244    ---   --   ---xx   abb1979-07-19d1t02.flac
     3:55.14       41486972    ---   --   ---xx   abb1979-07-19d1t03.flac
     4:36.14       48719372    ---   --   ---xx   abb1979-07-19d1t04.flac
     4:34.59       48472412    ---   --   ---xx   abb1979-07-19d1t05.flac
     3:32.54       37523852    ---   --   ---xx   abb1979-07-19d1t06.flac
     4:55.11       52063916    ---   --   ---xx   abb1979-07-19d1t07.flac
    10:52.43      115113980    ---   --   ---xx   abb1979-07-19d1t08.flac
     4:21.51       46160396    ---   --   ---xx   abb1979-07-19d1t09.flac
     5:07.29       54223052    ---   --   ---xx   abb1979-07-19d2t01.flac
     7:56.09       83987612    ---   --   ---xx   abb1979-07-19d2t02.flac
     7:08.12       75527468    ---   --   ---xx   abb1979-07-19d2t03.flac
    11:11.25      118423244    ---   --   ---xx   abb1979-07-19d2t04.flac
     6:51.21       72549836    ---   --   ---xx   abb1979-07-19d2t05.flac
     3:09.09       33360812    ---   --   ---xx   abb1979-07-19d2t06.flac
    85:53.40      909083940 B                     (totals for 15 files, 0.6732 overall compression ratio)




a66cef8783029a28be36fc6c508ccab2 *abb1979-07-19d1t01.flac
867d2597e555c540340e57a175c05a61 *abb1979-07-19d1t02.flac
99d30e9e31f3bee58e0f726b5a5c7af8 *abb1979-07-19d1t03.flac
132ed9556233735befc39889ffd0bb36 *abb1979-07-19d1t04.flac
98893a0e6fb2d491e99f3886a3ca0ff2 *abb1979-07-19d1t05.flac
d608548ac6bab9f93a860ce626ddae7b *abb1979-07-19d1t06.flac
bc0af0d4bc23ec3907cdafbb3d2eadc2 *abb1979-07-19d1t07.flac
4004711cd188c2d9bc77aa5eeff612c0 *abb1979-07-19d1t08.flac
6524e52ac1c3faf821351cbbb276cdcc *abb1979-07-19d1t09.flac
b0469d6f52df16ab4c494a62a0e30384 *abb1979-07-19d2t01.flac
ebb5dca80268564974199eea9f831371 *abb1979-07-19d2t02.flac
c4cbe10df76193ac44ad4535729ccb07 *abb1979-07-19d2t03.flac
9b6d77f6577d8d1622ef539f4a930226 *abb1979-07-19d2t04.flac
bab6d75fe943b13988a007a6df63aea6 *abb1979-07-19d2t05.flac
fdba070e3c0a95a6a76d8bc88f3eccd6 *abb1979-07-19d2t06.flac


abb1979-07-19d1t09.flac:7e0a65ab84d452f822b7848cc23433a7
abb1979-07-19d1t01.flac:62173701ea29b86d68d2bf92f0819b05
abb1979-07-19d1t02.flac:2080f4eb5cc3154c5583073f86571474
abb1979-07-19d1t03.flac:b4f3bbbd46e79bef78300a5acb55bc92
abb1979-07-19d1t04.flac:a53b2a8b609653aa0309acd3a27db673
abb1979-07-19d1t05.flac:c299aa2a5c84f5049821d8e72e6cea0c
abb1979-07-19d1t06.flac:0d095d175771b245bcca3633e847b566
abb1979-07-19d1t07.flac:3d81db6056134c42926043fe4241b414
abb1979-07-19d1t08.flac:368bd56ab58fa6394f544c7948c6d915

abb1979-07-19d2t06.flac:37a3543830be5e8d2f53372a24a23b08
abb1979-07-19d2t01.flac:cb92b0bea535d384b4d91fb67e0f2650
abb1979-07-19d2t02.flac:be3bb300ac8eba06c7b6d486a626a82a
abb1979-07-19d2t03.flac:33acea88afed5eeeac139d08640d5a44
abb1979-07-19d2t04.flac:9cde12744a9995cf51b98fcc109dd72e
abb1979-07-19d2t05.flac:c0ea2d2717336cfa191ee507af35a070





Show Checksums
flac-md5
a66cef8783029a28be36fc6c508ccab2 *abb1979-07-19d1t01.flac
867d2597e555c540340e57a175c05a61 *abb1979-07-19d1t02.flac
99d30e9e31f3bee58e0f726b5a5c7af8 *abb1979-07-19d1t03.flac
132ed9556233735befc39889ffd0bb36 *abb1979-07-19d1t04.flac
98893a0e6fb2d491e99f3886a3ca0ff2 *abb1979-07-19d1t05.flac
d608548ac6bab9f93a860ce626ddae7b *abb1979-07-19d1t06.flac
bc0af0d4bc23ec3907cdafbb3d2eadc2 *abb1979-07-19d1t07.flac
4004711cd188c2d9bc77aa5eeff612c0 *abb1979-07-19d1t08.flac
6524e52ac1c3faf821351cbbb276cdcc *abb1979-07-19d1t09.flac
b0469d6f52df16ab4c494a62a0e30384 *abb1979-07-19d2t01.flac
ebb5dca80268564974199eea9f831371 *abb1979-07-19d2t02.flac
c4cbe10df76193ac44ad4535729ccb07 *abb1979-07-19d2t03.flac
9b6d77f6577d8d1622ef539f4a930226 *abb1979-07-19d2t04.flac
bab6d75fe943b13988a007a6df63aea6 *abb1979-07-19d2t05.flac
fdba070e3c0a95a6a76d8bc88f3eccd6 *abb1979-07-19d2t06.flac
ffp
abb1979-07-19d1t09.flac:7e0a65ab84d452f822b7848cc23433a7
abb1979-07-19d1t01.flac:62173701ea29b86d68d2bf92f0819b05
abb1979-07-19d1t02.flac:2080f4eb5cc3154c5583073f86571474
abb1979-07-19d1t03.flac:b4f3bbbd46e79bef78300a5acb55bc92
abb1979-07-19d1t04.flac:a53b2a8b609653aa0309acd3a27db673
abb1979-07-19d1t05.flac:c299aa2a5c84f5049821d8e72e6cea0c
abb1979-07-19d1t06.flac:0d095d175771b245bcca3633e847b566
abb1979-07-19d1t07.flac:3d81db6056134c42926043fe4241b414
abb1979-07-19d1t08.flac:368bd56ab58fa6394f544c7948c6d915
abb1979-07-19d2t06.flac:37a3543830be5e8d2f53372a24a23b08
abb1979-07-19d2t01.flac:cb92b0bea535d384b4d91fb67e0f2650
abb1979-07-19d2t02.flac:be3bb300ac8eba06c7b6d486a626a82a
abb1979-07-19d2t03.flac:33acea88afed5eeeac139d08640d5a44
abb1979-07-19d2t04.flac:9cde12744a9995cf51b98fcc109dd72e
abb1979-07-19d2t05.flac:c0ea2d2717336cfa191ee507af35a070

Comments
Add Comment
Other Sources (comments)
FM > MC > CD (2)
Date User Comment