Browse Collections Artists Sources   Search Dates

Add Show    List Management    Help


Grateful Dead 10/31/79
Nassau Coliseum, Uniondale, NY
Comments Add Comment    Source Collectors    Add to Collection    Add to Want List    History
Source # 91040 Other Sources
Entered by Matt Vernon
Checksums flac-md5 , ffp
Disc Counts 2 / 3
Media Size
Date Circulated
Date Added
03/26/2008
03/26/2008
Source Summary flac16; SBD and Audience Matrix Mix  
  Archive
Source Information - Download Text | Download Zip
Grateful Dead - 10/31/79
Nassau Coliseum
Uniondale, NY

SBD and Audience Matrix Mix completed March 26, 2008

Set 1:

d1t01 - Tuning
d1t02 - China Cat Sunflower ->
d1t03 - I Know You Rider
d1t04 - Cassidy
d1t05 - Loser
d1t06 - "Take A Step Back"
d1t07 - Me And My Uncle ->
d1t08 - Big River
d1t09 - "Take A Step Back"
d1t10 - Althea
d1t11 - Lost Sailor ->
d1t12 - Saint Of Circumstancelength    

Set 2:


d2t01 - Tuning
d2t02 - Shakedown Street
d2t03 - Passenger
d2t04 - Ramble On Rose
d2t05 - Estimated Prophet ->
d2t06 - Eyes Of The World ->dience
d3t01 - Drums ->
d3t02 - Space ->
d3t03 - Wharf Rat ->
d3t04 - Truckin'

Encore:
d3t05 - Johnny B. Goode

Discs 2 and 3 are seemless.

Source Info:

SBD:  Set One: SBD -> Cassette Master -> Cassette -> Dat -> CD.  This is not                Charlie's source.  I thought my source sounded a bit brighter so I used it.            

      Set Two:  SBD -> Cassette Master (Sony TCD5M/UDXL-II) -> Dat (Panasonic SV3800/48k)  Seeded by Mr. Charlie Miller.  shnid #29410


Audience:   Nakamichi CM700's > Sony TCD5 > MAC 50ft. DFC Hand-Held
Transfer: MAC > Nakamichi DR-1 > Benchmark ADC-1 > AES > Sound Devices 722 > WAV.  Taped by Barry Glassberg, transfered by A. Egert and mastered by SIRMick.  shnid # 86239


Tech Notes:  I won't bore you with a bucnh of of useless info about what I did.  My thoughts on a good Matrix is they are like hybrid vigour.  When you mix two animals of high quality but very different characteristics, the resulting offspring is typically stronger than the parents.  I hope I achieved this result.  

Any questions or comments feel free to email me at [email protected]  Enjoy and peace.  Jim  


SHNTOOL OUTPUT:

length     expanded size    cdr  WAVE problems  fmt   ratio  filename
     1:17.53       13707500 B   ---   --   -----    wav  1.0000  gd79-10-31d1t01.wav
     7:31.43       79657580 B   ---   --   -----    wav  1.0000  gd79-10-31d1t02.wav
    10:29.27      111019148 B   ---   --   -----    wav  1.0000  gd79-10-31d1t03.wav
     7:13.70       76545884 B   ---   --   -----    wav  1.0000  gd79-10-31d1t04.wav
     7:19.24       77496092 B   ---   --   -----    wav  1.0000  gd79-10-31d1t05.wav
     3:25.22       36213788 B   ---   --   -----    wav  1.0000  gd79-10-31d1t06.wav
     3:05.53       32758700 B   ---   --   -----    wav  1.0000  gd79-10-31d1t07.wav
     9:43.08      102860060 B   ---   --   -----    wav  1.0000  gd79-10-31d1t08.wav
     1:01.32       10835708 B   ---   --   -----    wav  1.0000  gd79-10-31d1t09.wav
     9:35.72      101599388 B   ---   --   -----    wav  1.0000  gd79-10-31d1t10.wav
     6:23.50       67678844 B   ---   --   -----    wav  1.0000  gd79-10-31d1t11.wav
     5:50.16       61777676 B   ---   --   -----    wav  1.0000  gd79-10-31d1t12.wav
     3:02.48       32217740 B   ---   --   -----    wav  1.0000  gd79-10-31d2t01.wav
    19:14.07      203582108 B   ---   --   -----    wav  1.0000  gd79-10-31d2t02.wav
     7:38.09       80812412 B   ---   --   -----    wav  1.0000  gd79-10-31d2t03.wav
    11:20.64      120102572 B   ---   --   -----    wav  1.0000  gd79-10-31d2t04.wav
    16:02.67      169854428 B   ---   --   -----    wav  1.0000  gd79-10-31d2t05.wav
    17:49.53      188696300 B   ---   --   -----    wav  1.0000  gd79-10-31d2t06.wav
     7:55.31       83862956 B   ---   --   -----    wav  1.0000  gd79-10-31d3t01.wav
     6:41.05       70748204 B   ---   --   -----    wav  1.0000  gd79-10-31d3t02.wav
     9:53.18      104647580 B   ---   --   -----    wav  1.0000  gd79-10-31d3t03.wav
    12:38.44      133814732 B   ---   --   -----    wav  1.0000  gd79-10-31d3t04.wav
     4:48.64       50953772 B   ---   --   -----    wav  1.0000  gd79-10-31d3t05.wav
   190:02.55     2011443172 B                            1.0000  (23 files)
Show Checksums
flac-md5
4ed14a70bc42f748a44057e0ba98bef5 *gd79-10-31d1t01.flac
8e3e7a3e7e6eacbe66e33e863ed7735d *gd79-10-31d1t02.flac
d575e19f30f82eaeee7d19e327bb2617 *gd79-10-31d1t03.flac
8f0bcd53cb13457304ede6cd6d078365 *gd79-10-31d1t04.flac
aad046250413c512a3203a8ba8c395bd *gd79-10-31d1t05.flac
fe7fca6d23cb25d7076abfb6274f3098 *gd79-10-31d1t06.flac
67506c7ee4da494b95962a3ac3015026 *gd79-10-31d1t07.flac
5687ffc77d0b64a13eb82a46107b75b6 *gd79-10-31d1t08.flac
dc9fe7484a367e529a9232bdb862a713 *gd79-10-31d1t09.flac
0e006c3eedf0d93cf64c3d8ebb93c5ea *gd79-10-31d1t10.flac
eb241b38905828b309f9ae575314871e *gd79-10-31d1t11.flac
dd8c109c54b1190c6912476253d007da *gd79-10-31d1t12.flac
1382789f787856135f7fc687fd424fdd *gd79-10-31d2t01.flac
d1a5f80e9a5e936d3f9910504b4388fb *gd79-10-31d2t02.flac
bd1e610712a828571b7430972f86d04b *gd79-10-31d2t03.flac
3647d56facc3aa6b3f9984b23f7b7d46 *gd79-10-31d2t04.flac
36dc62e9f2f14c7968d0ac6dadee73e1 *gd79-10-31d2t05.flac
88a0a46a1a1cc59f3b34672e0c8ed187 *gd79-10-31d2t06.flac
e539810e5010e85a2ca1f78dc739d3d7 *gd79-10-31d3t01.flac
301d98dbf55eecd9f3e6a04df49f542c *gd79-10-31d3t02.flac
6286a96350547c6d2b85f6621944a361 *gd79-10-31d3t03.flac
95534413b5c832bd9cdfb61b89108597 *gd79-10-31d3t04.flac
0bc11a11b4e1475a44a8259f1c912e07 *gd79-10-31d3t05.flac
ffp
gd79-10-31d3t05.flac:73292102d8b2670bbae8ecceb44c83d9
gd79-10-31d1t01.flac:85022cebab95f5c93ae9df3c9a771d6c
gd79-10-31d1t02.flac:70cafdccb9cee755442f486b818eb490
gd79-10-31d1t03.flac:b0b0c881b6ee632a1e056853c4f3dd87
gd79-10-31d1t04.flac:5b32da6e636bdc366c55fb5711327a39
gd79-10-31d1t05.flac:9d0e21719f465d72ae4e1ad5beb79737
gd79-10-31d1t06.flac:647bf75ca80e7b036c5b418168d2abcc
gd79-10-31d1t07.flac:997f9e964e8bd43287d6fb8ec08ce9aa
gd79-10-31d1t08.flac:adb580e19b800eb3a6d998bda266fc78
gd79-10-31d1t09.flac:48b70db387c60c28550ed3fa56f4ac7f
gd79-10-31d1t10.flac:f9d3131e027346ee0d4dc7d11ea73d7e
gd79-10-31d1t11.flac:ff4744301dca83e3592ebc03bf75adef
gd79-10-31d1t12.flac:cc8fc700097b5368f832959526a80fb6
gd79-10-31d2t01.flac:b1c57e4dc19971d7876dec92914c0a65
gd79-10-31d2t02.flac:4151e1d1269abfe9c334c6938c8a27d3
gd79-10-31d2t03.flac:dd7b1ed90ef2a97974d0be618adb3d5d
gd79-10-31d2t04.flac:9bbbd8dac18d52a192d412ffa58ee8e6
gd79-10-31d2t05.flac:4a188173d0c45a142ee63fc438f16a42
gd79-10-31d2t06.flac:b591214724e077b0e92e999565fb1640
gd79-10-31d3t01.flac:dfdd1b047d8f6ce4fd1f961f6664043f
gd79-10-31d3t02.flac:17e3c932c0c80e31c39c881952dd3987
gd79-10-31d3t03.flac:90e41464107a9fa497563fe850e75b53
gd79-10-31d3t04.flac:c64af7b3e1630baac84a39162a4cbced

Comments
Add Comment
Other Sources (comments)
Partial 2nd Set; SB> MR>... (1) D1 (set 1) SBD> MR> C>... (1) Set1:... (0) flac16; Set 1: SBD... (1) flac16; Recording by... (0) flac24; Recording by... (0) flac16; Taper: Gerry... (0)
Date User Comment