Browse Collections Artists Sources   Search Dates

Add Show    List Management    Help


Grateful Dead 10/12/83
Madison Square Garden, New York, NY
Comments Add Comment    Source Collectors    Add to Collection    Add to Want List    History
Source # 91125 Other Sources
Entered by Matt Vernon
Checksums flac-md5 , ffp
Disc Counts 2 / 3
Media Size
Date Circulated
Date Added
03/31/2008
03/31/2008
Source Summary flac16; Recording Info: (FOB) Sennheiser 441 + (1) Neumann U87 -> Cassette Master (Nakamichi 550) -> Dat (48k); Transfer Info: Dat (Sony R500) -> Sound Devices 744T -> Samplitude Professional v10.02 -> FLAC All Transfers and Mastering By Charlie Miller; Recorded By Rob Eaton 
  Archive
Source Information - Download Text | Download Zip
Grateful Dead - October 12, 1983
Madison Square Garden - New York, NY

Recording Info:
(FOB) Sennheiser 441 + (1) Neumann U87 -> Cassette Master (Nakamichi 550) -> Dat (48k)

Transfer Info:
Dat (Sony R500) -> Sound Devices 744T -> Samplitude Professional v10.02 -> FLAC
(3 Discs Audio / 2 Discs FLAC)

All Transfers and Mastering By Charlie Miller
[email protected]
March 24, 2008

Notes:
-- Set 2 is seamless
-- Recorded By Rob Eaton
-- Dat provided by J.J. Clifton

Set 1:
d1t01 - Cold Rain And Snow
d1t02 - New Minglewood Blues
d1t03 - Ramble On Rose
d1t04 - My Brother Esau
d1t05 - It Must Have Been The Roses
d1t06 - Cassidy ->
d1t07 - Cumberland Blues
d1t08 - Looks Like Rain ->
d1t09 - Might As Well

Set 2:
d2t01 - Tuning
d2t02 - Help On The Way ->
d2t03 - Slipknot! ->
d2t04 - Franklin's Tower
d2t05 - Man Smart (Woman Smarter)
d3t01 - He's Gone ->
d3t02 - Drums ->
d3t03 - Space ->
d3t04 - Truckin' ->
d3t05 - Black Peter ->
d3t06 - Not Fade Away

Encore:
d3t07 - Revolution


SHNTOOL OUTPUT:
    length     expanded size   cdr  WAVE problems filename
     8:38.22       91426988    ---   --   -----   gd83-10-12d1t01.wav
    12:27.29      131839052    ---   --   -----   gd83-10-12d1t02.wav
     9:06.48       96427340    ---   --   -----   gd83-10-12d1t03.wav
     5:33.43       58842380    ---   --   -----   gd83-10-12d1t04.wav
     6:53.19       72897932    ---   --   -----   gd83-10-12d1t05.wav
     6:08.01       64917596    ---   --   -----   gd83-10-12d1t06.wav
    10:07.19      107119532    ---   --   -----   gd83-10-12d1t07.wav
     8:49.62       93461468    ---   --   -----   gd83-10-12d1t08.wav
     4:35.49       48625292    ---   --   -----   gd83-10-12d1t09.wav
     2:00.64       21318572    ---   --   -----   gd83-10-12d2t01.wav
     3:59.09       42180812    ---   --   -----   gd83-10-12d2t02.wav
     9:32.52      101023148    ---   --   -----   gd83-10-12d2t03.wav
    15:14.15      161264924    ---   --   -----   gd83-10-12d2t04.wav
     8:28.27       89674748    ---   --   -----   gd83-10-12d2t05.wav
    12:52.28      136246700    ---   --   -----   gd83-10-12d3t01.wav
     6:51.40       72594524    ---   --   -----   gd83-10-12d3t02.wav
    13:14.22      140113388    ---   --   -----   gd83-10-12d3t03.wav
     7:45.26       82087196    ---   --   -----   gd83-10-12d3t04.wav
     9:11.61       97339916    ---   --   -----   gd83-10-12d3t05.wav
    10:18.54      109142252    ---   --   -----   gd83-10-12d3t06.wav
     5:11.15       54895724    ---   --   -----   gd83-10-12d3t07.wav
   177:00.30     1873439484 B                     (totals for 21 files)
Show Checksums
flac-md5
f3573ca53552cd475fd774032cf5e85d *gd83-10-12d1t01.flac
379a4e9b47d3c8bc2b9a2d9a166ce17a *gd83-10-12d1t02.flac
0cf1c87fce786f979dafcb8848b1d1b0 *gd83-10-12d1t03.flac
e4d5c4ecd4fc12b4dd88b63535497e2f *gd83-10-12d1t04.flac
09054644f9bf76a39bbeffbb1d0ae18f *gd83-10-12d1t05.flac
9ec13c617f06a3995255018d8e645a83 *gd83-10-12d1t06.flac
3043d50c796bf8b24fa1b209a8653f23 *gd83-10-12d1t07.flac
fb1a39d1ae6fee0ac8cd85b8cd8b6ba1 *gd83-10-12d1t08.flac
5d83568ef4be552e05a2ac60777c44a2 *gd83-10-12d1t09.flac
53a7b82beca756c3b0ef0d8c60b84ad3 *gd83-10-12d2t01.flac
831e13f1122a007aa03a76765a576615 *gd83-10-12d2t02.flac
e10d270a813e3410a777fa4294c9965f *gd83-10-12d2t03.flac
53d448bdb830f47316a961ac6d9404f8 *gd83-10-12d2t04.flac
cc85503e07f4b8388fd74f7aad1d32c1 *gd83-10-12d2t05.flac
9ef492c4948c762cd2ace91abf7f1d24 *gd83-10-12d3t01.flac
db1b379664c06e2c69046258576da0ae *gd83-10-12d3t02.flac
6642e917e3ebcc2d86a03cb1b8d5dc1d *gd83-10-12d3t03.flac
f0949a83027d760d5538a257ce3fde93 *gd83-10-12d3t04.flac
5b1046b41a88eeb4f0c29b91f4bfb9d5 *gd83-10-12d3t05.flac
3d927dcbacd411853b3c5af7411c0fe5 *gd83-10-12d3t06.flac
2d3eaf206de0995daf5c7b979d361414 *gd83-10-12d3t07.flac
ffp
gd83-10-12d1t01.flac:1c133d67766c81e860426f8c5bd1a7af
gd83-10-12d1t02.flac:18f6d2867cbdba559bc2495d1e09d99c
gd83-10-12d1t03.flac:b5288bd5be5c6177ef393b5b763ee021
gd83-10-12d1t04.flac:3a777558bd09f1da5131f1795da5a5cb
gd83-10-12d1t05.flac:9d96c514bf82d52506b97c54a822dd92
gd83-10-12d1t06.flac:0b09ecdc7906b9f883a4ecb628c428f0
gd83-10-12d1t07.flac:fc85b9adf26a3403cad215dbc08c8e24
gd83-10-12d1t08.flac:d49b000a1a4a4dd2baddee1fcb370c7f
gd83-10-12d1t09.flac:6339365028e006256677aa93b7564a59
gd83-10-12d2t01.flac:df9c33c88326c464c63229dd93dedd1f
gd83-10-12d2t02.flac:e149f8c8ba0d13596a9f0b966886a589
gd83-10-12d2t03.flac:8cd5633a86981dcc7ff73178f2940b4a
gd83-10-12d2t04.flac:052a11514ea065947a54a7d2da036349
gd83-10-12d2t05.flac:b1bf8a9c2e10f461ba99856cc9e28f37
gd83-10-12d3t01.flac:6823950f1c9afcaf61f2c7b4ab214545
gd83-10-12d3t02.flac:98e91cefe701649a4aeb768f7c514926
gd83-10-12d3t03.flac:fa45ceb6ec2a87792db1effa2d1f4857
gd83-10-12d3t04.flac:d7a7518079e2cb8fd049281185a13a24
gd83-10-12d3t05.flac:eb7a6478f55eaa0e36d0d4d567c13406
gd83-10-12d3t06.flac:c3b63bb817ffc6b2d8a8875ea4c5b645
gd83-10-12d3t07.flac:718c1ffe871fe35cecaf769faeb35c4d

Comments
Add Comment
Other Sources (comments)
unknown aud (could be FOB... (2) SBD > Cassette Master > Dat... (0) flac16; Source: FOB... (0) flac16; Sennheiser... (0) flac16; SBD and... (0) 2 Beyer M160>Sony TCD5M... (0) flac16; Lineage:... (0) flac16; Source: 2... (0) flac24; Updated... (0) flac16; 2 Source... (0) flac24; Master... (0) flac16; Master... (0) flac24; Updated... (2) flac16; Updated... (2) flac24; Partial Show... (0) flac16; Partial Show... (0)
Date User Comment