Browse Collections Artists Sources   Search Dates

Add Show    List Management    Help


Grateful Dead 10/17/83
Olympic Center, Lake Placid, NY
Comments Add Comment    Source Collectors    Add to Collection    Add to Want List    History
Source # 91126 Other Sources
Entered by Matt Vernon
Checksums flac-md5 , ffp
Disc Counts 2 / 3
Media Size
Date Circulated
Date Added
03/31/2008
03/31/2008
Source Summary flac16; Recording Info: (FOB) Sennheiser 441 + (1) Neumann U87 -> Cassette Master (Nakamichi 550) -> Dat (48k); Transfer Info: Dat (Sony R500) -> Sound Devices 744T -> Samplitude Professional v10.02 -> FLAC All Transfers and Mastering By Charlie Miller; Recorded By Rob Eaton 
  Archive
Source Information - Download Text | Download Zip
Grateful Dead - October 17, 1983
Olympic Arena - Lake Placid, NY

Recording Info:
(FOB) Sennheiser 441 + (1) Neumann U87 -> Cassette Master (Nakamichi 550) -> Dat (48k)

Transfer Info:
Dat (Sony R500) -> Sound Devices 744T -> Samplitude Professional v10.02 -> FLAC
(3 Discs Audio / 2 Discs FLAC)

All Transfers and Mastering By Charlie Miller
[email protected]
March 24, 2008

Patch Info:
(FOB/12th Row) Sennheiser 421 -> Cassette Master -> Dat -> CD (shnid=347) supplies:
Drums (complete track)

Notes:
-- Set 2 is seamless
-- Recorded By Rob Eaton
-- Dat provided by J.J. Clifton

Set 1:
d1t01 - Sugaree ->
d1t02 - Little Red Rooster
d1t03 - Friend Of The Devil
d1t04 - My Brother Esau
d1t05 - Bird Song
d1t06 - Hell In A Bucket ->
d1t07 - Deal

Set 2:
d2t01 - Touch Of Grey
d2t02 - Samson And Delilah
d2t03 - To Lay Me Down ->
d2t04 - Man Smart (Woman Smarter)
d2t05 - Terrapin Station ->
d2t06 - Drums ->
d3t01 - Space ->
d3t02 - The Wheel ->
d3t03 - I Need A Miracle ->
d3t04 - Goin' Down The Road Feeling Bad ->
d3t05 - Good Lovin'

Encore:
d3t06 - Revolution


SHNTOOL OUTPUT:
    length     expanded size   cdr  WAVE problems filename
    16:34.58      175478060    ---   --   -----   gd83-10-17d1t01.wav
     9:28.60      100336364    ---   --   -----   gd83-10-17d1t02.wav
    10:06.43      106999580    ---   --   -----   gd83-10-17d1t03.wav
     5:30.43       58313180    ---   --   -----   gd83-10-17d1t04.wav
    14:12.67      150450428    ---   --   -----   gd83-10-17d1t05.wav
     6:22.30       67455404    ---   --   -----   gd83-10-17d1t06.wav
    10:41.47      113182988    ---   --   -----   gd83-10-17d1t07.wav
     7:32.40       79826924    ---   --   -----   gd83-10-17d2t01.wav
     9:53.06      104619356    ---   --   -----   gd83-10-17d2t02.wav
     9:02.42       95707628    ---   --   -----   gd83-10-17d2t03.wav
     7:33.39       80000972    ---   --   -----   gd83-10-17d2t04.wav
    12:38.53      133835900    ---   --   -----   gd83-10-17d2t05.wav
     8:07.41       86003276    ---   --   -----   gd83-10-17d2t06.wav
    11:16.43      119347580    ---   --   -----   gd83-10-17d3t01.wav
     7:02.05       74452604    ---   --   -----   gd83-10-17d3t02.wav
     4:38.15       49074524    ---   --   -----   gd83-10-17d3t03.wav
     7:17.63       77235020    ---   --   -----   gd83-10-17d3t04.wav
     8:37.73       91370540    ---   --   -----   gd83-10-17d3t05.wav
     5:18.02       56099948    ---   --   -----   gd83-10-17d3t06.wav
   171:56.20     1819790276 B                     (totals for 19 files)
Show Checksums
flac-md5
53d67c1099fd99ac227eac81ef1c30c2 *gd83-10-17d1t01.flac
fd165d979aa1ad69f58209ca37dd5857 *gd83-10-17d1t02.flac
eb13e078f40ef3281faf04132e49b4c7 *gd83-10-17d1t03.flac
bf59d02dc4de918797e023c41a42d147 *gd83-10-17d1t04.flac
341f8d899f061d2ba9d978c830b54959 *gd83-10-17d1t05.flac
1098c11f6febbd2218c1716633098220 *gd83-10-17d1t06.flac
3eeaf119642910a93422a76d5109e34d *gd83-10-17d1t07.flac
02854c81231a6bae4f04968ccc805354 *gd83-10-17d2t01.flac
9ae38f7140cfd09ea2555caa2451c4f5 *gd83-10-17d2t02.flac
c5229d1280cddc14e4efe3c0521a360b *gd83-10-17d2t03.flac
7eb40121192e76a27268094aaad79ee0 *gd83-10-17d2t04.flac
fd985f7bbf34821664e3f05d098315e6 *gd83-10-17d2t05.flac
3ae858430a4f23e54500ce3df26120b7 *gd83-10-17d2t06.flac
d0e9dfc71b8082ad6a396ec7fe0d88ab *gd83-10-17d3t01.flac
01be948fa9c261d9b3ab6a706e92796a *gd83-10-17d3t02.flac
d7febe3aec79b2f09e3bec0f00ad63ef *gd83-10-17d3t03.flac
a932860100aa30abdbc9c9f52c93e537 *gd83-10-17d3t04.flac
200cc0a89a37ddf60a28fee4e40357b0 *gd83-10-17d3t05.flac
5df97bb70ea80c4328dd9e535363ffc2 *gd83-10-17d3t06.flac
ffp
gd83-10-17d1t01.flac:a9c4cc437bcffddd4bfb22b544143913
gd83-10-17d1t02.flac:b53e3f57e746641781673fdeec83d618
gd83-10-17d1t03.flac:1e7e310ebb24b77d823a0177cc961e96
gd83-10-17d1t04.flac:ed121e6a9a5cf6a602a9ce3568c697eb
gd83-10-17d1t05.flac:b00d7bbe618e864342a561f247701f19
gd83-10-17d1t06.flac:e5515f4529b59afafe1a8e8921df3c00
gd83-10-17d1t07.flac:288a8d13cea5474997da5e50e52757ea
gd83-10-17d2t01.flac:1e5345651aa971882cb522129bad62f0
gd83-10-17d2t02.flac:6534465585b155f580de7fcab0723942
gd83-10-17d2t03.flac:10c3f5d24cd9bcd4f770c108c41e0cc2
gd83-10-17d2t04.flac:5b627b64feb06dee98601264c55f85f7
gd83-10-17d2t05.flac:3a792e664578aa5b4c8f3a6e97acd72c
gd83-10-17d2t06.flac:0b5041cf4e01a209ce23ce1a14b93596
gd83-10-17d3t01.flac:b0a8be2c0375df4bc34369dda2ee14a6
gd83-10-17d3t02.flac:f214fd2dbd65a79a28b9cff84097f6fa
gd83-10-17d3t03.flac:41f43d19bf81223314739176acf05dd6
gd83-10-17d3t04.flac:9a49236c4b2e4ed35243ee36e449a84a
gd83-10-17d3t05.flac:2be4687b58954b627f420291f2db8ce6
gd83-10-17d3t06.flac:1b6075ca09d4d82205f6f0b6d285dea7

Comments
Add Comment
Other Sources (comments)
FOB (12th Row) > Sennheiser... (1) reDAE of very same audio CD... (0) flac16; mixed SBD... (1) flac16; Source: DAT... (0) MATRIX MIX: 2 SBD/ 1 AUD... (0) MATRIX MIX: 2 SBD/ 1 AUD... (1) flac16; MATRIX MIX:... (0) flac16; Lineage:... (1) flac16; 2 Beyer... (0) flac16; Source: 2... (0) flac24; lineage:... (0) flac16; Master... (0) flac24; Master... (0) flac24; Recording... (0) flac16; Recording... (0)
Date User Comment