Browse Collections Artists Sources   Search Dates

Add Show    List Management    Help


Grateful Dead 07/19/94
Deer Creek Music Center, Noblesville, IN
Comments Add Comment    Source Collectors    Add to Collection    Add to Want List    History
Source # 91140 Other Sources
Entered by Matt Vernon
Checksums ffp , flac-md5
Disc Counts 1 / 2
Media Size
Date Circulated
Date Added
04/01/2008
04/01/2008
Source Summary flac16; Set 2 only, (OTS) AKG 460b/ck61 -> custom pre-amp -> D-7 -> dat (master) -> DA-20mkII -> AR coax -> Audiophile 24/96 -> Wavelab 5.0 -> CD Wave -> FLAC(6). recorded by: Dave Flaschner. transfer: Chris Davis (3/31/08) 
  Archive
Source Information - Download Text | Download Zip
Grateful Dead
Deer Creek Music Center
Noblesville, IN
July 19, 1994

source:  (OTS) AKG 460b/ck61 -> custom pre-amp -> D-7
recorded by:  Dave Flaschner

transfer:  dat (master) -> DA-20mkII -> AR coax -> Audiophile 24/96 -> Wavelab 5.0 -> CD Wave -> FLAC(6)
transfer:  Chris Davis (4/1/08)

Set II only:

Disc 1:        (54:40)
01.  (01:45)   tuning
02.  (11:50)   Foolish Heart
03.  (07:28)   Saint of Circumstance
04.  (04:09)   I Want to Tell You
05.  (17:17)   Playin' in the Band ->
06.  (12:11)   Drums ->

Disc 2:        (47:59)
01.  (10:11)   Space ->
02.  (11:08)   Wharf Rat ->
03.  (10:26)   Throwing Stones ->
04.  (07:05)   Not Fade Away
05.  (04:11)   NFA chant/crowd/tuning

Encore:
06.  (04:58)   Rain

    length     expanded size    cdr  WAVE problems  fmt   ratio  filename
     1:45.01       18524396 B   ---   --   -----    wav  1.0000  gd1994-07-19setIId1t01.wav
    11:50.36      125328716 B   ---   --   -----    wav  1.0000  gd1994-07-19setIId1t02.wav
     7:28.35       79109564 B   ---   --   -----    wav  1.0000  gd1994-07-19setIId1t03.wav
     4:09.30       43994204 B   ---   --   -----    wav  1.0000  gd1994-07-19setIId1t04.wav
    17:17.67      183084428 B   ---   --   -----    wav  1.0000  gd1994-07-19setIId1t05.wav
    12:11.43      129049580 B   ---   --   -----    wav  1.0000  gd1994-07-19setIId1t06.wav
    10:11.48      107893340 B   ---   --   -----    wav  1.0000  gd1994-07-19setIId2t01.wav
    11:08.11      117861116 B   ---   --   -----    wav  1.0000  gd1994-07-19setIId2t02.wav
    10:26.07      110442908 B   ---   --   -----    wav  1.0000  gd1994-07-19setIId2t03.wav
     7:05.54       75097052 B   ---   --   -----    wav  1.0000  gd1994-07-19setIId2t04.wav
     4:11.74       44450492 B   ---   --   -----    wav  1.0000  gd1994-07-19setIId2t05.wav
     4:58.23       52621340 B   ---   --   -----    wav  1.0000  gd1994-07-19setIId2t06.wav
   102:44.54     1087457136 B                            1.0000  (12 files)
Show Checksums
ffp
gd1994-07-19setIId1t01.flac:6019119a97f32a93f36a1fe7d1037418
gd1994-07-19setIId1t02.flac:1dbde4cb0db2b72c900aa4453758a8de
gd1994-07-19setIId1t03.flac:a8806ce009fefec673330af2f1ef45e9
gd1994-07-19setIId1t04.flac:990e971bed6d1915eead870432e77a0e
gd1994-07-19setIId1t05.flac:5c54c2a143af25c7eb2e4478d8c2add6
gd1994-07-19setIId1t06.flac:5a28b08b212490387443982b32e1fd4d
gd1994-07-19setIId2t01.flac:abb340633fe65c020b14a48f1607b59d
gd1994-07-19setIId2t02.flac:c265b8b020ccdb4904141663f2d4e40b
gd1994-07-19setIId2t03.flac:cc341ec76ba0e8faf825d541d9ed3a83
gd1994-07-19setIId2t04.flac:56346db8c5983c67bfbec78b13a2d078
gd1994-07-19setIId2t05.flac:d280eb750a74a2992a9bd42d2ca85a66
gd1994-07-19setIId2t06.flac:9e9e1cdecdb3a5905cae638a3db47368
flac-md5
2aa58515bbc5db8a9932596c9128f5cf *gd1994-07-19setiid1t01.flac
81b7f755f9f3f3bdf25bc974515b8f1c *gd1994-07-19setiid1t02.flac
bc89473ad0252a1b4941167f0a769a0a *gd1994-07-19setiid1t03.flac
4551bfd9247e2c7c83043a500744b918 *gd1994-07-19setiid1t04.flac
b711cb989665023b209593dc80800f53 *gd1994-07-19setiid1t05.flac
96c15d9721387220e403c359a650be4f *gd1994-07-19setiid1t06.flac
9e1b8f8da5cdf9807765e618bf26d281 *gd1994-07-19setiid2t01.flac
24889dc05a2a8864a1c399a5c856ba8a *gd1994-07-19setiid2t02.flac
d8a4a238ba703abc6968628f29a8e89b *gd1994-07-19setiid2t03.flac
8405bb6759e43ce5d4171e1afb8c7e61 *gd1994-07-19setiid2t04.flac
b825b82cca4edacc92d79fae00615909 *gd1994-07-19setiid2t05.flac
4fcbcf4f626c7135ba958346fcfdf66a *gd1994-07-19setiid2t06.flac

Comments
Add Comment
Other Sources (comments)
DSBd>?>CDR; Seeded to etree... (1) AudioTechnica 815A... (0) flac16; Fix of (2) flac16; Taper: Greg... (0) flac16; Nak 300's >... (0)
Date User Comment