Browse Collections Artists Sources   Search Dates

Add Show    List Management    Help


Phish 09/21/87
Nectar's, Burlington, VT
Comments Add Comment    Source Collectors    Add to Collection    Add to Want List    History
Source # 91147 Other Sources
Entered by Ben Mohr
Checksums all_ffp , all_wav_md5
Disc Counts 2 / 3
Media Size
Date Circulated
Date Added
04/01/2008
04/01/2008
Source Summary AUD > Cass/x > Sony K615S > Sony ZA5ES w/SBM @48kHz; Tascam DA-20mkII > Tascam HD-P2 > CF card > Samplitude SE v9.1.1 (DSP) > FLAC; Cass>DAT Transfer by Brett Stone and Paul Jones; DAT>FLAC Transfer by Jason Sobel 
Source Information - Download Text | Download Zip
Phish
September 21, 1987
Nectar's
Burlington, VT

source:
audience recording > cass/x

cassette to DAT:
cass/x > Sony K615S > Sony ZA5ES w/SBM (@ 48 kHz)

DAT to FLAC:
Tascam DA-20MKII > Tascam HD-P2 > CF card > usb 2.0 > pc > Samplitude SE v9.1.1 (DSP) > FLAC v1.2.1 (Level 8)

FLAC tags added with metaflac v1.2.1

cassette to DAT transfer by Brett Stone and Paul Jones
DAT to FLAC transfer by Jason Sobel ([email protected])
seeded April 1, 2008

Digital Signal Processing (DSP) notes:
Waves X-Noise (v5.0) plug-in used to reduce background hiss
fades
resample to 44.1 kHz
tracking

other notes:
The original 48 kHz .wav files from the DAT transfer have been archived, and are available upon request.
Big thanks to Brett for sending me his DATs to transfer to FLAC!

show notes:
tape flip cut in "AC/DC Bag" at [06:02]
tape flip cut just after Dog Gone Dog (no music missing)
the end of "Fluffhead" is cut

Disc 1 - [50:51]
Set I
01 - [03:16] - The Man Who Stepped Into Yesterday >
02 - [03:25] - Avenu Malkenu >
03 - [01:35] - The Man Who Stepped Into Yesterday Reprise
04 - [04:57] - Clod >
05 - [06:06] - Slave to the Traffic Light
06 - [04:55] - Funky Bitch
07 - [05:30] - Wilson
08 - [03:29] - Dear Mrs. Reagan
09 - [05:09] - Golgi Apparatus >
10 - [07:09] - AC/DC Bag ->
11 - [05:20] - Possum

Disc 2 - [63:42]
Set II
01 - [14:24] - You Enjoy Myself
02 - [12:38] - The Curtain With
03 - [02:57] - Big Black Furry Creature from Mars
04 - [06:09] - Suzy Greenberg
05 - [04:53] - Alumni Blues >
06 - [01:06] - Letter to Jimmy Page >
07 - [00:41] - Alumni Blues
Set III
08 - [01:02] - The Birthday Dub *
09 - [04:48] - Good Times Bad Times
10 - [03:13] - Rocky Top **
11 - [05:41] - Sneakin' Sally Through the Alley
12 - [06:09] - Fee

Dusc 3 - [56:43]
Set III continued
01 - [04:53] - The Divided Sky
02 - [04:39] - Dog Gone Dog
03 - [05:12] - The Ballad of Curtis Loew
04 - [13:17] - Run Like an Antelope
05 - [10:56] - Makisupa Policeman
06 - [03:07] - Flat Fee
07 - [04:36] - Fire
08 - [03:16] - Terrapin
09 - [02:50] - La Grange
10 - [03:56] - Fluffhead

* dedicated to "Spup"
** first known performance

According to the "Phish Companion", there is some uncertainty about the set breaks.
Trey definitely announces a set break after "Alumni Blues", so that we know for sure.
However, it seems as though the taper paused the original tape deck when there were long breaks between songs.
Because of that, it remains unclear exactly where the break was between sets 1 and 2.
I have "You Enjoy Myself" starting set 2, as that is consistent with the "Phish Companion".

---------------------------------------------------------------------------------------------------------

SHNtool len mode output:

    length     expanded size    cdr  WAVE problems  fmt   ratio  filename
     3:15.50       34515644 B   ---   --   ---xx   flac  0.4700  ph1987-09-21d1t01.flac
     3:25.05       36173804 B   ---   --   ---xx   flac  0.5743  ph1987-09-21d1t02.flac
     1:35.28       16823900 B   ---   --   ---xx   flac  0.5062  ph1987-09-21d1t03.flac
     4:56.62       52360268 B   ---   --   ---xx   flac  0.5700  ph1987-09-21d1t04.flac
     6:05.52       64508348 B   ---   --   ---xx   flac  0.5381  ph1987-09-21d1t05.flac
     4:55.07       52054508 B   ---   --   ---xx   flac  0.5423  ph1987-09-21d1t06.flac
     5:29.66       58190876 B   ---   --   ---xx   flac  0.5257  ph1987-09-21d1t07.flac
     3:29.10       36891164 B   ---   --   ---xx   flac  0.4953  ph1987-09-21d1t08.flac
     5:08.61       54474716 B   ---   --   ---xx   flac  0.5521  ph1987-09-21d1t09.flac
     7:09.15       75710924 B   ---   --   ---xx   flac  0.5488  ph1987-09-21d1t10.flac
     5:20.10       56471564 B   ---   --   ---xx   flac  0.4843  ph1987-09-21d1t11.flac
    14:24.05      152421404 B   ---   --   ---xx   flac  0.4888  ph1987-09-21d2t01.flac
    12:38.00      133711244 B   ---   --   ---xx   flac  0.5012  ph1987-09-21d2t02.flac
     2:56.66       31201676 B   ---   --   ---xx   flac  0.5703  ph1987-09-21d2t03.flac
     6:09.22       65143388 B   ---   --   ---xx   flac  0.5894  ph1987-09-21d2t04.flac
     4:53.08       51704060 B   ---   --   ---xx   flac  0.6153  ph1987-09-21d2t05.flac
     1:05.66       11621276 B   ---   --   ---xx   flac  0.6249  ph1987-09-21d2t06.flac
     0:40.74        7230092 B   ---   --   ---xx   flac  0.6183  ph1987-09-21d2t07.flac
     1:01.65       10913324 B   ---   --   ---xx   flac  0.5480  ph1987-09-21d2t08.flac
     4:48.06       50817356 B   ---   --   ---xx   flac  0.6548  ph1987-09-21d2t09.flac
     3:13.24       34101692 B   ---   --   ---xx   flac  0.6164  ph1987-09-21d2t10.flac
     5:41.27       60215948 B   ---   --   ---xx   flac  0.6173  ph1987-09-21d2t11.flac
     6:09.26       65152796 B   ---   --   ---xx   flac  0.5803  ph1987-09-21d2t12.flac
     4:53.20       51732284 B   ---   --   ---xx   flac  0.6146  ph1987-09-21d3t01.flac
     4:38.65       49192124 B   ---   --   ---xx   flac  0.6001  ph1987-09-21d3t02.flac
     5:12.27       55100348 B   ---   --   ---xx   flac  0.4403  ph1987-09-21d3t03.flac
    13:17.28      140656700 B   ---   --   ---xx   flac  0.5230  ph1987-09-21d3t04.flac
    10:55.62      115687868 B   ---   --   ---xx   flac  0.5106  ph1987-09-21d3t05.flac
     3:06.56       32942156 B   ---   --   ---xx   flac  0.5305  ph1987-09-21d3t06.flac
     4:35.44       48613532 B   ---   --   ---xx   flac  0.6073  ph1987-09-21d3t07.flac
     3:16.37       34661468 B   ---   --   ---xx   flac  0.4640  ph1987-09-21d3t08.flac
     2:49.43       29912780 B   ---   --   ---xx   flac  0.5715  ph1987-09-21d3t09.flac
     3:56.33       41708060 B   ---   --   ---xx   flac  0.5369  ph1987-09-21d3t10.flac
   171:15.45     1812617292 B                            0.5425  (33 files)
Show Checksums
all_ffp
ph1987-09-21d1t01.flac:6e04b85d12300ccf9315592940d1ad45
ph1987-09-21d1t02.flac:1281e03482c0822f6cdea5969dc5aae8
ph1987-09-21d1t03.flac:000f04a0b18154379fe9aea85a8fbc10
ph1987-09-21d1t04.flac:be620518490125fea1e467e4d3dc74ab
ph1987-09-21d1t05.flac:0a7659fe62e9040c58a98bc3e6aaff18
ph1987-09-21d1t06.flac:941ef103f4946f99861a1bd598076dd1
ph1987-09-21d1t07.flac:30973d115e7563f0baa1d0a9fa30bd27
ph1987-09-21d1t08.flac:9e8460e85aae8087c6b275447366687c
ph1987-09-21d1t09.flac:ceb06718327cad92a30a087a33c0f2cb
ph1987-09-21d1t10.flac:37532ac7d93356e5c3235cfd29d5a505
ph1987-09-21d1t11.flac:a18fbc56457fe5909ae757b915a8823e
ph1987-09-21d2t01.flac:add858965e34fecba4c5de06bced4f4a
ph1987-09-21d2t02.flac:d5196d3d4cb688bcd8dfde1091030a0c
ph1987-09-21d2t03.flac:ce7c9b03ad4ba83425da140ad8b8d054
ph1987-09-21d2t04.flac:907d2fe2de895ff30efb2ea63b719d27
ph1987-09-21d2t05.flac:2bb59df62c6c39def7b543a7f8df472a
ph1987-09-21d2t06.flac:fb117850f18368babf2011096409feea
ph1987-09-21d2t07.flac:d4be45505ee76fb2130fc4550ed592c3
ph1987-09-21d2t08.flac:d71c202ad8eb9475bd568446e5719038
ph1987-09-21d2t09.flac:956d2f93c7920d8075d4a10b99347ce6
ph1987-09-21d2t10.flac:5b75eb00d2f31537a594b78a9077778d
ph1987-09-21d2t11.flac:f0f8fd36d1ac78d6067ae0ee1ca3d08a
ph1987-09-21d2t12.flac:05f733fba3763a4ba6d354886b9e79d5
ph1987-09-21d3t01.flac:e624b23cdf25ed73add33916a99f5a60
ph1987-09-21d3t02.flac:50f139e99449f66e50facd1fd043a8da
ph1987-09-21d3t03.flac:3ee24efa7ab22b7c67159d145057d74b
ph1987-09-21d3t04.flac:5f29a7a167a69421b547edee53cacdbc
ph1987-09-21d3t05.flac:bcec884b0a7ad79039aa5ecc3f222182
ph1987-09-21d3t06.flac:2e5896af0bb0a39dda52a38d07abcef9
ph1987-09-21d3t07.flac:056aacfb6d7972b27b2fdce4a25d5812
ph1987-09-21d3t08.flac:c1f6024d9e01a1f57947fa82fd40a752
ph1987-09-21d3t09.flac:20f6571542cf8192a26f2628a59f6dce
ph1987-09-21d3t10.flac:2f1909ef387d717cbc6dc6051e973071
all_wav_md5
eb41d76a4e63d9776c396f62f8bff566 *ph1987-09-21d1t01.wav
a1093f11729eeba44d481c443ef8beff *ph1987-09-21d1t02.wav
d70ffd67096558f0967d5968bb9b4108 *ph1987-09-21d1t03.wav
c458fbc7a691e0fc59725bd8cfa1f776 *ph1987-09-21d1t04.wav
392327b59b2e3b542d74da2ed35cb6e9 *ph1987-09-21d1t05.wav
02dfc55292b5129c53860791d05565df *ph1987-09-21d1t06.wav
d9165974540ef289f66c111b05165e32 *ph1987-09-21d1t07.wav
285c286f1fe13f146be6988fbd707cd9 *ph1987-09-21d1t08.wav
fc067cb6cdc2450135a49423edc58b1c *ph1987-09-21d1t09.wav
a7251e5455304bb72dc02e93f3bb4ca3 *ph1987-09-21d1t10.wav
ddb30415aea382e8e6b77f94091caf45 *ph1987-09-21d1t11.wav
45c8a13d2c21741cddb6e41bc50e3718 *ph1987-09-21d2t01.wav
c97d359a84e8cdec3881adc2d73ce585 *ph1987-09-21d2t02.wav
1043ee5841b498c41c2da5172068b2ea *ph1987-09-21d2t03.wav
482cbab2c2f54c25ebba873d2aabdef2 *ph1987-09-21d2t04.wav
dc26190ddfd1970128148af1ff516786 *ph1987-09-21d2t05.wav
da6293fd3bc63bc37e4644af55b3b151 *ph1987-09-21d2t06.wav
2bf6c80fc70b08309071673a72a7aa60 *ph1987-09-21d2t07.wav
9cc29ee040e57a87a6a4dd4125472335 *ph1987-09-21d2t08.wav
32362281872d8457d789efcf4e65ceab *ph1987-09-21d2t09.wav
4e3bbff2aafffa05292abf442820e9b4 *ph1987-09-21d2t10.wav
f89a47267e481755a12a1442fa935243 *ph1987-09-21d2t11.wav
713c600ab178d7355ac28487770d83fc *ph1987-09-21d2t12.wav
890e1b1616dc32b801333c32dc8e0e8e *ph1987-09-21d3t01.wav
40b9b18e27d8a91a38fa31159f73135c *ph1987-09-21d3t02.wav
5db9a7eeb12c609c7e8a955a796453f7 *ph1987-09-21d3t03.wav
3bf4ff566ae8d97c7e10fa75ca2d2ff3 *ph1987-09-21d3t04.wav
418489ed41b1a65336f3398f4874392e *ph1987-09-21d3t05.wav
921195828c04c763f9e21387b108744f *ph1987-09-21d3t06.wav
445944cd7aa01fb5db9afb172c2d6160 *ph1987-09-21d3t07.wav
d72b2545309f6295af4630001a307f31 *ph1987-09-21d3t08.wav
94c484d8868b11141ae2885be40149ab *ph1987-09-21d3t09.wav
ce137be6a89d35aecd1b8cfcef1cb7b8 *ph1987-09-21d3t10.wav

Comments
Add Comment
Other Sources (comments)
Unknown Aud >CDR > EAC >... (0)
Date User Comment