Browse Collections Artists Sources   Search Dates

Add Show    List Management    Help


Drive-By Truckers 01/10/08
40 Watt Club, Athens, GA
Comments Add Comment    Source Collectors    Add to Collection    Add to Want List    History
Source # 91148 Other Sources
Entered by Kyle pike
Checksums ffp
Disc Counts 2 / 1
Media Size
Date Circulated
Date Added

04/01/2008
Source Summary [16 bit] Neumann ak40 > lc3 > km100 > Lunatec V3 > Tascam HD-P2 (Gordon Wilson) 
  Archive
Source Information - Download Text | Download Zip
Drive-By Truckers
01/10/2008
40 Watt Club
Athens,GA

source:   Neumann ak40 > lc3 > km100 > Lunatec V3 > Tascam HD-P2 @ 24/96
location: fob,dfc,din, @ 7'
transfer: compact flash card > HDD > wavelab 5.01b > cd wave > flac (level 8)

all editing (fades at beginning and end of set, resampled w/ resampler 192, dither w/ UV22 HR) done in wavelab 5.01b.

*This is a 16bit/44.1khz fileset*

recorded and transfered by Gordon Wilson

01. Intro
02. Two Daughters and a Beautiful Wife
03. Daddy Needs a Drink
04. Self Destructive Zones
05. The Righteous Path
06. I'm Sorry Huston
07. Three Dimes Down
08. Perfect Timing
09. Bob
10. Home Field Advantage
11. The Opening Act
12. Lisa's Birthday
13. The Home Front
14. Check Out Time In Vegas
15. The Man I Shot
16. Purgatory Line
17. You and Your Crystal Meth
18. Goode's Field Road
19. A Ghost To Most
20. Monument Valley

encore:

21. Banter
22. Adam Raised a Cain
23. Lookout Mountain
24. Marry Me *
25. Sink Hole
26. Where The Devil Don't Stay


suggested disc split is between track 15 & 16

* w/ Clay Leverett

Patterson Hood - guitar, vocal
Mike Cooley - guitar, vocal
Shonna Tucker - bass, vocal
John Neff - pedal steel, guitar
Brad "The EZB" Morgan - drums
Spooner Oldham - keyboard

www.drivebytruckers.com
www.ninebullets.org

shntool 3.0.4
    length     expanded size    cdr  WAVE problems  fmt   ratio  filename
     1:26.02       15175148 B   ---   --   ---xx   flac  0.4816  dbt2008-01-10t01.flac
     4:05.42       43316828 B   ---   --   ---xx   flac  0.4695  dbt2008-01-10t02.flac
     5:23.64       57127772 B   ---   --   ---xx   flac  0.4562  dbt2008-01-10t03.flac
     4:01.08       42531260 B   ---   --   ---xx   flac  0.5352  dbt2008-01-10t04.flac
     4:44.29       50165852 B   ---   --   ---xx   flac  0.5786  dbt2008-01-10t05.flac
     3:35.48       38038940 B   ---   --   ---xx   flac  0.4848  dbt2008-01-10t06.flac
     4:09.13       43954220 B   ---   --   ---xx   flac  0.5236  dbt2008-01-10t07.flac
     2:51.33       30242060 B   ---   --   ---xx   flac  0.4783  dbt2008-01-10t08.flac
     2:42.09       28598012 B   ---   --   ---xx   flac  0.4721  dbt2008-01-10t09.flac
     5:13.33       55290860 B   ---   --   ---xx   flac  0.5497  dbt2008-01-10t10.flac
     8:32.09       90338012 B   ---   --   ---xx   flac  0.4936  dbt2008-01-10t11.flac
     3:23.17       35849228 B   ---   --   ---xx   flac  0.4814  dbt2008-01-10t12.flac
     4:21.73       46212140 B   ---   --   ---xx   flac  0.4911  dbt2008-01-10t13.flac
     3:22.01       35635196 B   ---   --   ---xx   flac  0.4471  dbt2008-01-10t14.flac
     6:28.59       68582012 B   ---   --   ---xx   flac  0.5646  dbt2008-01-10t15.flac
     4:14.37       44892668 B   ---   --   ---xx   flac  0.4346  dbt2008-01-10t16.flac
     6:18.33       66756860 B   ---   --   ---xx   flac  0.5265  dbt2008-01-10t17.flac
     7:40.42       81242828 B   ---   --   ---xx   flac  0.5119  dbt2008-01-10t18.flac
     5:02.00       53272844 B   ---   --   ---xx   flac  0.5451  dbt2008-01-10t19.flac
    12:18.74      130357292 B   ---   --   ---xx   flac  0.4572  dbt2008-01-10t20.flac
     1:42.30       18063404 B   ---   --   ---xx   flac  0.4881  dbt2008-01-10t21.flac
     5:46.01       61036796 B   ---   --   ---xx   flac  0.5928  dbt2008-01-10t22.flac
     5:39.57       59933708 B   ---   --   ---xx   flac  0.5864  dbt2008-01-10t23.flac
     6:09.40       65185724 B   ---   --   ---xx   flac  0.5880  dbt2008-01-10t24.flac
     4:23.58       46529660 B   ---   --   ---xx   flac  0.5660  dbt2008-01-10t25.flac
     6:23.00       67561244 B   ---   --   ---xx   flac  0.5576  dbt2008-01-10t26.flac
   129:59.62     1375890568 B                            0.5174  (26 files)

Show Checksums
ffp
dbt2008-01-10t01.flac:d7c843573172e754ad3444f885077416
dbt2008-01-10t02.flac:91cba0581c6ba7beb9e20825338d622a
dbt2008-01-10t03.flac:fe7914d020cddeabd04e24e312540862
dbt2008-01-10t04.flac:ec177b5295ebb43b80b1e8fcf1dbbe30
dbt2008-01-10t05.flac:0e985258ca84d537fababf9861a9e0ef
dbt2008-01-10t06.flac:9d33c7fbd70f59ab862ded4f876de68e
dbt2008-01-10t07.flac:cbee9b3b9628d8b38d2dc8861459f994
dbt2008-01-10t08.flac:cd5768375396f1d4e71d823634f84693
dbt2008-01-10t09.flac:9e215b06984c299e87a1f5e23807cc4f
dbt2008-01-10t10.flac:65f5e7eca1d21d52b79235e684b71730
dbt2008-01-10t11.flac:7c401c4cc99a8a6d4d9e460f74ac5b8e
dbt2008-01-10t12.flac:8cac19ceea7731896145708c6e412ad1
dbt2008-01-10t13.flac:c0f8a0dfd94cc47e903d2336bd039461
dbt2008-01-10t14.flac:7c69508afc0e74acc280dec699151200
dbt2008-01-10t15.flac:d23cdf842517bf2a1605476ab0fa4a9d
dbt2008-01-10t16.flac:c330218e81a932a9f9f93847e7c09230
dbt2008-01-10t17.flac:de7d1747e0840c929d3d48fd8c30655c
dbt2008-01-10t18.flac:1ed32e7fe09e324292e0d71aa538320e
dbt2008-01-10t19.flac:9ae2a9321b45ee2bfdd6d45f68f665d4
dbt2008-01-10t20.flac:f7054a9f243386af484010d33745c686
dbt2008-01-10t21.flac:6f41964ce0a8721773a5f4523dbd54f8
dbt2008-01-10t22.flac:c6272c367e4d6d3b66b2222f60d2f61f
dbt2008-01-10t23.flac:ba1efc77d749ec758ee663fcc102b14d
dbt2008-01-10t24.flac:c7b150184fe6daceaa9ef23f91c80cbd
dbt2008-01-10t25.flac:7199b590d135a16ac68e8d8319fe1441
dbt2008-01-10t26.flac:66ed07b8803c948e1c0bb2a05cf893c4

Comments
Add Comment
Date User Comment