Browse Collections Artists Sources   Search Dates

Add Show    List Management    Help


Drive-By Truckers 01/11/08
40 Watt Club, Athens, GA
Comments Add Comment    Source Collectors    Add to Collection    Add to Want List    History
Source # 91149 Other Sources
Entered by Kyle pike
Checksums ffp
Disc Counts 2 / 1
Media Size
Date Circulated
Date Added

04/01/2008
Source Summary [16 bit] Neumann ak40 > lc3 > km100 > SD 722 (Gordon Wilson) 
Source Information - Download Text | Download Zip
Drive-By Truckers
01/11/2008
40 Watt Club
Athens,GA

source:  Neumann ak40 > lc3 > km100 > Sound Devices 722 (24bit/96kHz)
location: fob,dfc,din, @ 7'
transfer: Sound Devices 722 > HDD > wavelab 5.01b > cd wave > flac (level 8)

all editing (gain raised, fades at beginning and end of set, resampled w/ resampler 192, dither w/ UV22 HR) done in wavelab 5.01b.

*This is a 16bit/44.1khz fileset*

recorded and transfered by Gordon Wilson

01. Intro
02. You and Your Crystal Meth
03. Goode's Field Road
04. Three Dimes Down
05. The Righteous Path
06. A Ghost To Most
07. Two Daughters and a Beautiful Wife
08. Daddy Needs a Drink
09. I'm Sorry Huston
10. Why Henry Drinks
11. Self Destructive Zones
12. Do It Yourself
13. Home Field Advantage
14. Sinkhole
15. Gravity's Gone
16. The Opening Act
17. Perfect Timing
18. Bob
19. The Living Bubba
20. Adam Raised A Cain

Encore:
21. Lisa's Birthday
22. The Home Front
23. The Man I Shot
24. Purgatory Line
25. Let There Be Rock
26. Shut Up and Get On The Plane
27. Angels and Fuselage

notes:
huge thanks to Martin Medley for the use of the 722.
suggested disc split is between track 16 & 17
crowd noise before encore cut to allow the 24/96 version to fit on one DVDA.  crossfade added, no music/banter missing.


Patterson Hood - guitar, vocal
Mike Cooley - guitar, banjo, harmonica, vocal
Shonna Tucker - bass, vocal
John Neff - pedal steel, guitar
Brad "The EZB" Morgan - drums
Spooner Oldham - keyboard

www.drivebytruckers.com
www.ninebullets.org


shntool 3.0.4
    length     expanded size    cdr  WAVE problems  fmt   ratio  filename
     1:48.57       19185308 B   ---   --   ---xx   flac  0.4917  dbt2008-01-11t01.flac
     4:35.23       48564140 B   ---   --   ---xx   flac  0.4956  dbt2008-01-11t02.flac
     6:11.00       65444444 B   ---   --   ---xx   flac  0.4936  dbt2008-01-11t03.flac
     2:58.01       31401596 B   ---   --   ---xx   flac  0.5307  dbt2008-01-11t04.flac
     4:20.39       45955772 B   ---   --   ---xx   flac  0.5478  dbt2008-01-11t05.flac
     6:34.68       69661580 B   ---   --   ---xx   flac  0.4851  dbt2008-01-11t06.flac
     3:16.11       34600316 B   ---   --   ---xx   flac  0.4532  dbt2008-01-11t07.flac
     4:38.01       49041596 B   ---   --   ---xx   flac  0.4390  dbt2008-01-11t08.flac
     3:17.53       34875500 B   ---   --   ---xx   flac  0.4619  dbt2008-01-11t09.flac
     5:13.32       55288508 B   ---   --   ---xx   flac  0.4962  dbt2008-01-11t10.flac
     4:02.71       42855836 B   ---   --   ---xx   flac  0.5179  dbt2008-01-11t11.flac
     3:49.10       40419164 B   ---   --   ---xx   flac  0.5559  dbt2008-01-11t12.flac
     4:42.69       49907132 B   ---   --   ---xx   flac  0.5325  dbt2008-01-11t13.flac
     4:47.66       50782076 B   ---   --   ---xx   flac  0.5393  dbt2008-01-11t14.flac
     6:06.26       64623596 B   ---   --   ---xx   flac  0.5001  dbt2008-01-11t15.flac
     9:28.19      100239932 B   ---   --   ---xx   flac  0.4812  dbt2008-01-11t16.flac
     3:15.57       34532108 B   ---   --   ---xx   flac  0.4579  dbt2008-01-11t17.flac
     2:39.19       28092332 B   ---   --   ---xx   flac  0.4632  dbt2008-01-11t18.flac
     6:24.66       67892876 B   ---   --   ---xx   flac  0.5152  dbt2008-01-11t19.flac
     8:08.14       86116172 B   ---   --   ---xx   flac  0.5299  dbt2008-01-11t20.flac
     3:30.34       37124012 B   ---   --   ---xx   flac  0.4562  dbt2008-01-11t21.flac
     3:28.60       36832364 B   ---   --   ---xx   flac  0.4884  dbt2008-01-11t22.flac
     6:13.17       65837228 B   ---   --   ---xx   flac  0.5500  dbt2008-01-11t23.flac
     4:19.27       45751148 B   ---   --   ---xx   flac  0.4216  dbt2008-01-11t24.flac
     6:36.33       69932060 B   ---   --   ---xx   flac  0.5399  dbt2008-01-11t25.flac
     4:43.51       50041196 B   ---   --   ---xx   flac  0.5753  dbt2008-01-11t26.flac
     9:04.16       95999276 B   ---   --   ---xx   flac  0.4749  dbt2008-01-11t27.flac
   134:15.40     1420997268 B                            0.5020  (27 files)
Show Checksums
ffp
dbt2008-01-11t01.flac:a8f08aa7b6e80c35611ce9f86f73d17f
dbt2008-01-11t02.flac:bba85174db8840ad8fbae2b8cfeaabf5
dbt2008-01-11t03.flac:f82d0554771cbfb11d238038300b1984
dbt2008-01-11t04.flac:b2d953aacf24aaea49905aaae7cc10f0
dbt2008-01-11t05.flac:2b000ba859d86abfffb7a117bf4bf517
dbt2008-01-11t06.flac:d1f3a14ff36e9aba1389339e5022520c
dbt2008-01-11t07.flac:ecd8a0c24be2bd0fb534000ef2118954
dbt2008-01-11t08.flac:87f31505530a3825d6b3784bbc3d9bcc
dbt2008-01-11t09.flac:082b656f176c798e4062b6f899dacc43
dbt2008-01-11t10.flac:c2dd1bc8ad1536e4eaa3eea6754fa8ca
dbt2008-01-11t11.flac:7235e85de8a68cf923b566c5f527ec90
dbt2008-01-11t12.flac:02fea825ff376c53e4a723c32f3f292f
dbt2008-01-11t13.flac:90798b679c65942bba768b61f653684e
dbt2008-01-11t14.flac:af61e428941a3e5a8a4c2c12b18bbe11
dbt2008-01-11t15.flac:09f5aebac2ad146a20491c2e2af63342
dbt2008-01-11t16.flac:800af6c956842c94eef3eaec6da2ebfe
dbt2008-01-11t17.flac:03601bf54f335b356e5ff877cb2c14e8
dbt2008-01-11t18.flac:79212d72246ab38e6e739d34dfc7566a
dbt2008-01-11t19.flac:bb9e5034a01cac0f7b35b853f77a99d8
dbt2008-01-11t20.flac:d3ae4c2f6c687fdbcd53bbf692118fdc
dbt2008-01-11t21.flac:af13bb417c3895e4720fe9eb4a1efd54
dbt2008-01-11t22.flac:d3ceefc4669f7701b014d7748cad6684
dbt2008-01-11t23.flac:5498cf1b13f2cd4db237e14e6b3d1e2d
dbt2008-01-11t24.flac:66cc2d5da78c771685ee1b9c91f0a25e
dbt2008-01-11t25.flac:f15e0a1f8d31bf75150fff592203d949
dbt2008-01-11t26.flac:e51e27b1396af2964562ff81faf9d551
dbt2008-01-11t27.flac:9d506c118abf3c32c146b34e14043b36

Comments
Add Comment
Other Sources (comments)
[16 Bit] DPA 4011s > V2 >... (0)
Date User Comment