Browse Collections Artists Sources   Search Dates

Add Show    List Management    Help


Grateful Dead 07/21/94
Deer Creek Music Center, Noblesville, IN
Comments Add Comment    Source Collectors    Add to Collection    Add to Want List    History
Source # 91155 Other Sources
Entered by Matt Vernon
Checksums ffp , flac-md5
Disc Counts 2 / 3
Media Size
Date Circulated
Date Added
04/02/2008
04/02/2008
Source Summary flac16; (OTS) AKG 460b/ck61 -> custom pre-amp -> D-7 -> dat (master) -> DA-20mkII -> AR coax -> Audiophile 24/96 -> Wavelab 5.0 -> CD Wave -> FLAC(6). recorded by: Dave Flaschner. transfer: Chris Davis (4/2/08) 
  Archive
Source Information - Download Text | Download Zip
Grateful Dead
Deer Creek Music Center
Noblesville, IN
July 21, 1994

source:  (OTS) AKG 460b/ck61 -> custom pre-amp -> D-7
recorded by:  Dave Flaschner

transfer:  dat (master) -> DA-20mkII -> AR coax -> Audiophile 24/96 -> Wavelab 5.0 -> CD Wave -> FLAC(6)
transfer:  Chris Davis (4/2/08)

Disc 1:        (61:41)
Set 1:
01.  (03:55)   crowd/tuning
02.  (06:28)   Touch of Gray
03.  (04:11)   Greatest Story Ever Told
04.  (05:14)   Jack A Roe
05.  (07:30)   The Same Thing
06.  (07:49)   Stagger Lee
07.  (03:08)   Me and My Uncle @ ->
08.  (05:39)   Mexicali Blues @
09.  (08:29)   Ramble on Rose
10.  (09:18)   The Music Never Stopped

Disc 2:        (64:32)
Set 2:
01.  (01:56)   tuning
02.  (08:19)   Women R Smarter
03.  (06:37)   If the Shoe Fits
04.  (06:41)   Way to Go Home
05.  (04:06)   Help on the Way ->
06.  (09:17)   Slipknot! ->
07.  (14:11)   Franklin's Tower ->
08.  (13:25)   Drums ->

Disc 3:        (55:53)
Set 2 (cont):
01.  (18:01)   Space ->
02.  (07:28)   All Along the Watchtower ->
03.  (12:44)   Days Between ->
04.  (08:16)   Good Lovin'
05.  (02:29)   crowd/tuning

Encore:
06.  (06:55)   Liberty *

@Weir on acoustic
*Daves source cut at 04:03, so I spliced in shn id# 12099.  I added +8 db on the patch source to better match the levels.

    length     expanded size    cdr  WAVE problems  fmt   ratio  filename
     3:55.01       41456396 B   ---   --   -----    wav  1.0000  gd1994-07-21d1t01.wav
     6:28.41       68539676 B   ---   --   -----    wav  1.0000  gd1994-07-21d1t02.wav
     4:11.50       44394044 B   ---   --   -----    wav  1.0000  gd1994-07-21d1t03.wav
     5:14.27       55453148 B   ---   --   -----    wav  1.0000  gd1994-07-21d1t04.wav
     7:30.28       79445900 B   ---   --   -----    wav  1.0000  gd1994-07-21d1t05.wav
     7:49.68       82891580 B   ---   --   -----    wav  1.0000  gd1994-07-21d1t06.wav
     3:08.01       33165596 B   ---   --   -----    wav  1.0000  gd1994-07-21d1t07.wav
     5:39.46       59907836 B   ---   --   -----    wav  1.0000  gd1994-07-21d1t08.wav
     8:29.00       89787644 B   ---   --   -----    wav  1.0000  gd1994-07-21d1t09.wav
     9:18.25       98490044 B   ---   --   -----    wav  1.0000  gd1994-07-21d1t10.wav
     1:56.31       20535356 B   ---   --   -----    wav  1.0000  gd1994-07-21d2t01.wav
     8:19.27       88087148 B   ---   --   -----    wav  1.0000  gd1994-07-21d2t02.wav
     6:37.59       70169612 B   ---   --   -----    wav  1.0000  gd1994-07-21d2t03.wav
     6:41.69       70898732 B   ---   --   -----    wav  1.0000  gd1994-07-21d2t04.wav
     4:06.02       43399148 B   ---   --   -----    wav  1.0000  gd1994-07-21d2t05.wav
     9:17.34       98334812 B   ---   --   -----    wav  1.0000  gd1994-07-21d2t06.wav
    14:11.13      150147020 B   ---   --   -----    wav  1.0000  gd1994-07-21d2t07.wav
    13:25.16      142039676 B   ---   --   -----    wav  1.0000  gd1994-07-21d2t08.wav
    18:01.45      190794284 B   ---   --   -----    wav  1.0000  gd1994-07-21d3t01.wav
     7:28.55       79156604 B   ---   --   -----    wav  1.0000  gd1994-07-21d3t02.wav
    12:44.69      134931932 B   ---   --   -----    wav  1.0000  gd1994-07-21d3t03.wav
     8:16.23       87548540 B   ---   --   -----    wav  1.0000  gd1994-07-21d3t04.wav
     2:29.47       26394188 B   ---   --   -----    wav  1.0000  gd1994-07-21d3t05.wav
     6:55.66       73361276 B   ---   --   -----    wav  1.0000  gd1994-07-21d3t06.wav
   182:17.18     1929330192 B                            1.0000  (24 files)
Show Checksums
ffp
gd1994-07-21d1t01.flac:3487bffbe7fe321853702aeb36164e86
gd1994-07-21d1t02.flac:b4491cadfb5dc36a289d3f3c441c7072
gd1994-07-21d1t03.flac:949055a4881dbf4159da67aa20bc97d4
gd1994-07-21d1t04.flac:182ec0c0574f0a05a529a354f651c259
gd1994-07-21d1t05.flac:93298c8e7456464304257dee4563c5eb
gd1994-07-21d1t06.flac:75ae8614683b6304080e4a3973dc0287
gd1994-07-21d1t07.flac:c5248149dac013cbfdf594a5d9a28b3f
gd1994-07-21d1t08.flac:cb64243c352163e4e9ebde188b893946
gd1994-07-21d1t09.flac:bf583ea27ec2e6b5462dc3ee69fc64f4
gd1994-07-21d1t10.flac:c4b9401e8eec64ee366ac42d8b759545
gd1994-07-21d2t01.flac:70ade3e24c057fc32fe2a2b97e1945fb
gd1994-07-21d2t02.flac:918faf817d86abce89bc96ebaf23fb18
gd1994-07-21d2t03.flac:ccc72b71332fc4aa0cc9edba7f98eb37
gd1994-07-21d2t04.flac:9e9e4342367c32b837f43f1977445e87
gd1994-07-21d2t05.flac:8492607589b8bcf131cbdd73b4842d43
gd1994-07-21d2t06.flac:3de00f08be150f1f0049d45684e5d399
gd1994-07-21d2t07.flac:c6f2f36b5a93f7b0f7be2af2e3f10737
gd1994-07-21d2t08.flac:a937add1b755ff311742f70ba7147009
gd1994-07-21d3t01.flac:65cbc98bed0add59a1d90cc53c3e2498
gd1994-07-21d3t02.flac:9e285bebf54df84e7a2b6957a9baf545
gd1994-07-21d3t03.flac:527e00ddfd4933aa7c275189dff23226
gd1994-07-21d3t04.flac:b788b18ea6fe717093cb22996b29ec41
gd1994-07-21d3t05.flac:639ba78be7fd6b098ed84c2411844008
gd1994-07-21d3t06.flac:a62df8f65836b19c32ce4d12b52fc990
flac-md5
7e16db264c864fbf807a73178ab3357a *gd1994-07-21d1t01.flac
2b67308794f492ed5b89e02dd6cfdc04 *gd1994-07-21d1t02.flac
0994286ae1d413226fef80420ac1d35b *gd1994-07-21d1t03.flac
474148cfe495e3095f32a60f58155779 *gd1994-07-21d1t04.flac
a8ad25a51391e2162b6fe2151ca95de0 *gd1994-07-21d1t05.flac
1c08890def1ccda1786bc578bed523c5 *gd1994-07-21d1t06.flac
9588e8bdf3d98564fd53e36b2ead384d *gd1994-07-21d1t07.flac
8b4712c6632495ea3f3f89c346e4e5f4 *gd1994-07-21d1t08.flac
77d6a31eb633d88594e6fb311aa5eb90 *gd1994-07-21d1t09.flac
661c7c609f48166daa67818b749f2dc7 *gd1994-07-21d1t10.flac
c07da4afa164179d4f1b637256fb2eaf *gd1994-07-21d2t01.flac
3af2f23f377ade684c31a71ea922ee85 *gd1994-07-21d2t02.flac
0f45a603d53583bc2db930449280889b *gd1994-07-21d2t03.flac
7909f86f814d9f4b4f35156d59dc87ce *gd1994-07-21d2t04.flac
83d8b54f8fb103326a8ca8bab74dbfd8 *gd1994-07-21d2t05.flac
59589c3ff590c91cfcfed67362e29a88 *gd1994-07-21d2t06.flac
d987928436012d5ed1df61884e123e13 *gd1994-07-21d2t07.flac
dfef5bfa7294c3d7b1b4a5fd7f9ef761 *gd1994-07-21d2t08.flac
c50149c251f555044fe85fc78abce1a2 *gd1994-07-21d3t01.flac
4a90221d8f9d81af97207e63d9fb52bb *gd1994-07-21d3t02.flac
8b0f6e3978504df091f6d0aaaca81208 *gd1994-07-21d3t03.flac
e819bca679c036805d5d0ec02ad1bee0 *gd1994-07-21d3t04.flac
d3c51103cfaaa6cefe54ef9051da7803 *gd1994-07-21d3t05.flac
c6b160b58ab1f32c0000a7fb9697e188 *gd1994-07-21d3t06.flac

Comments
Add Comment
Other Sources (comments)
SBD> ?> DAT> CD> Cool Edit>... (0) AUD (mic unk) >DAT>CD; via... (0) Shntool fix (by Chris... (0) Source: FOB Shure BG 4.0's... (0) Source: A:D(48kHz) no mic... (2) Source: Nak 300's/cp4's >... (0) flac16; Taper: Greg... (0) flac16; Source:... (0) flac16/44.1 Source... (0)
Date User Comment