Browse Collections Artists Sources   Search Dates

Add Show    List Management    Help


Ratdog 03/28/08
Royal Oak Music Theater, Royal Oak, MI
Comments Add Comment    Source Collectors    Add to Collection    Add to Want List    History
Source # 91184 Other Sources
Entered by Charlie Connor
Checksums ffp
Disc Counts 2 / 3
Media Size
Date Circulated
Date Added
03/29/2008
04/04/2008
Source Summary flac 16; Source: Schoeps CCM4V'S(din)>Lunatec V2>Sound Devices 722 (24/48) location: fob/dfc/kfc/zfc/aarp Off the First Rail 7 1/2' High; dsp: Sound Devices 722>Sound Forge 7.0>CD Wave>flac(16); Recorded By: The Z-Man 
Source Information - Download Text | Download Zip
Ratdog
Royal Oak Music Theatre
Royal Oak, Michigan
3/28/2008

source: Schoeps CCM4V'S(din)>Lunatec V2>Sound Devices 722 (24/48)
location: fob/dfc/kfc/zfc/aarp Off the First Rail 7 1/2' High
dsp: Sound Devices 722>Sound Forge 7.0>CD Wave>flac(16)
Recorded By: The Z-Man
Seeded By: The Z-Man

Disc I 1st Set

01 Here Comes Sunshine >
02 The Music Never Stopped>
03 New Minglewood Blues >
04 She Belongs to Me >
05 Walkin' Blue >
06 Row Jimmy >


Disc II 1st Set Con't

01 Brown-eyed Women >
02 Eyes of the World
2nd Set:
03 *Blackbird >
04 *Fever >
05 *A Hard Rains A Gonna Fall >
06 Milestones
07 Shade of Grey >
08 Hell in a Bucket >

Disc III 2nd Set Con't

01 #Jam
02 The Days Between >
03 St. Stephen >
04 The Eleven
Encore:
05 Brokedown Palace

* Acoustic
# With Jammin' John on Keyboards

ratdog2008-03-28d01t01.flac:a197020a65984f2ebf83c2313efdfb08
ratdog2008-03-28d01t02.flac:b17284587de3f9f4961b00c96d929668
ratdog2008-03-28d01t03.flac:9611dff4bbf1b72048b5c411a0faf77e
ratdog2008-03-28d01t04.flac:7451a5333f00aef67a1e34c4690ef4a9
ratdog2008-03-28d01t05.flac:985ce1ce2d52076ee32f76b3bbe0f2a5
ratdog2008-03-28d01t06.flac:85443720eead332d9d19e68ae1d9b2ca
ratdog2008-03-28d02t01.flac:589a2b2f734bdbfe528e8c0799eb00fe
ratdog2008-03-28d02t02.flac:a82e58e3e7e2f45865c9c246f638cda8
ratdog2008-03-28d02t03.flac:b5168c8514bbddac1b4a5c43f54227fd
ratdog2008-03-28d02t04.flac:a7c3a617b0125707a27e25dd2aba2db0
ratdog2008-03-28d02t05.flac:59ba12888be95de529b4f8c00a373c7b
ratdog2008-03-28d02t06.flac:6c858ea7f92aca4afbde1d5e6d150129
ratdog2008-03-28d02t07.flac:21a5f9a68e3a53cc531ef64f0b308832
ratdog2008-03-28d02t08.flac:22f1f27ee18128bad6ffb1535bbb8721
ratdog2008-03-28d03t01.flac:d82675251fecbfe87b97d303091b365b
ratdog2008-03-28d03t02.flac:e74d45966c976fb745c5c26cb3664d07
ratdog2008-03-28d03t03.flac:ca0e2dfea93ded79dfb9f07452f633c6
ratdog2008-03-28d03t04.flac:1292c0f8b7725e1a2d1cac9e20179e21
ratdog2008-03-28d03t05.flac:ed3ef2db735b2c446bf22aa0af98197c

length     expanded size   cdr  WAVE problems filename
    12:57.12      137091068    ---   --   ---xx   ratdog2008-03-28d01t01.flac
    10:09.66      107582876    ---   --   ---xx   ratdog2008-03-28d01t02.flac
     9:08.39       96758972    ---   --   ---xx   ratdog2008-03-28d01t03.flac
     7:48.37       82642268    ---   --   ---xx   ratdog2008-03-28d01t04.flac
     8:03.73       85372940    ---   --   ---xx   ratdog2008-03-28d01t05.flac
    12:08.53      128543900    ---   --   ---xx   ratdog2008-03-28d01t06.flac
     6:05.33       64463660    ---   --   ---xx   ratdog2008-03-28d02t01.flac
    17:28.34      184947212    ---   --   ---xx   ratdog2008-03-28d02t02.flac
     5:42.49       60444092    ---   --   ---xx   ratdog2008-03-28d02t03.flac
     6:58.31       73808156    ---   --   ---xx   ratdog2008-03-28d02t04.flac
     8:15.25       87376844    ---   --   ---xx   ratdog2008-03-28d02t05.flac
     8:12.24       86845292    ---   --   ---xx   ratdog2008-03-28d02t06.flac
     8:04.04       85387052    ---   --   ---xx   ratdog2008-03-28d02t07.flac
     9:09.10       96867164    ---   --   ---xx   ratdog2008-03-28d02t08.flac
    12:14.04      129487052    ---   --   ---xx   ratdog2008-03-28d03t01.flac
    11:21.57      120262508    ---   --   ---xx   ratdog2008-03-28d03t02.flac
     9:44.53      103142300    ---   --   ---xx   ratdog2008-03-28d03t03.flac
    16:13.50      171754844    ---   --   ---xx   ratdog2008-03-28d03t04.flac
     6:27.43       68367980    ---   --   ---xx   ratdog2008-03-28d03t05.flac
   186:14.22     1971146180 B                     (totals for 19 files, 0.5665 overall compression ratio)
Show Checksums
ffp
ratdog2008-03-28d01t01.flac:a197020a65984f2ebf83c2313efdfb08
ratdog2008-03-28d01t02.flac:b17284587de3f9f4961b00c96d929668
ratdog2008-03-28d01t03.flac:9611dff4bbf1b72048b5c411a0faf77e
ratdog2008-03-28d01t04.flac:7451a5333f00aef67a1e34c4690ef4a9
ratdog2008-03-28d01t05.flac:985ce1ce2d52076ee32f76b3bbe0f2a5
ratdog2008-03-28d01t06.flac:85443720eead332d9d19e68ae1d9b2ca
ratdog2008-03-28d02t01.flac:589a2b2f734bdbfe528e8c0799eb00fe
ratdog2008-03-28d02t02.flac:a82e58e3e7e2f45865c9c246f638cda8
ratdog2008-03-28d02t03.flac:b5168c8514bbddac1b4a5c43f54227fd
ratdog2008-03-28d02t04.flac:a7c3a617b0125707a27e25dd2aba2db0
ratdog2008-03-28d02t05.flac:59ba12888be95de529b4f8c00a373c7b
ratdog2008-03-28d02t06.flac:6c858ea7f92aca4afbde1d5e6d150129
ratdog2008-03-28d02t07.flac:21a5f9a68e3a53cc531ef64f0b308832
ratdog2008-03-28d02t08.flac:22f1f27ee18128bad6ffb1535bbb8721
ratdog2008-03-28d03t01.flac:d82675251fecbfe87b97d303091b365b
ratdog2008-03-28d03t02.flac:e74d45966c976fb745c5c26cb3664d07
ratdog2008-03-28d03t03.flac:ca0e2dfea93ded79dfb9f07452f633c6
ratdog2008-03-28d03t04.flac:1292c0f8b7725e1a2d1cac9e20179e21
ratdog2008-03-28d03t05.flac:ed3ef2db735b2c446bf22aa0af98197c

Comments
Add Comment
Date User Comment