Browse Collections Artists Sources   Search Dates

Add Show    List Management    Help


Ween 01/29/08
Tabernacle, Atlanta, GA
Comments Add Comment    Source Collectors    Add to Collection    Add to Want List    History
Source # 91186 Other Sources
Entered by Greg Yurkovic
Checksums ffp
Disc Counts 2 / 3
Media Size
Date Circulated
Date Added
01/30/08
04/04/2008
Source Summary flac16: Schoeps CCM4V'S(din)>Lunatec V2>Sound Devices 722 (24/48)>Sound Forge 7.0>CD Wave>flac(16) 
Source Information - Download Text | Download Zip
Ween
The Tabernacle
Atlanta, Georgia
1/29/2008

Source: Schoeps CCM4V'S(din)>Lunatec V2>Sound Devices 722 (24/48)
Location: fob/dfc,kfc/zfc/aarp Off the rail, Front Row of the Balcony
dsp: Sound Devices 722>Sound Forge 7.0>CD Wave>flac(16)
Recorded By: The Z-Man
Seeded By: The Z-Man

Disc I

01 Ice Castles
02 Aides
03 Golden Eel
04 Stallion Part 3
05 Bananas and Blow
06 Learning to Love
07 Voodoo Lady
08 Zoloft
09 Transdermal Celebration
10 Take Me Away
11 Stroker Ace

Disc II

01 Object
02 Buckingham Green
03 Own Bare Hands
04 Your Party
05 Laura
06 Piss Up a Rope
07 Don't Squeal on the Pusher >
08 Drum Solo >
09 Don't Squeal on the Pusher
10 Touch My Tooter
11 Mr Please Help My Pony

Disc III

01 Woman and Man Part I (Dean Broke a String)
02 Woman and Man Part II
03 Hebrew Chant
04 Can't Put My Finger On It
05 Ocean Man
06 The Mollusk
07 El Camino
08 Buenos Tardes
Encore:
09 tuning
10 Fiesta
11 Puerto Rican Power
12 Dr. Rock
13 Someday

ween2008-01-29d01t01.flac:281242457c585c7e939669f3433a210e
ween2008-01-29d01t02.flac:c7467cff7025b705926ccce7c74f1a49
ween2008-01-29d01t03.flac:d6866dcff6aeb070a8dacf57210c002a
ween2008-01-29d01t04.flac:bf89af0752811bad1db5a55ac0128fef
ween2008-01-29d01t05.flac:8feddec71105a633f0250ee351fc2e15
ween2008-01-29d01t06.flac:ec581908b4af3721ee243ec2420a5420
ween2008-01-29d01t07.flac:e6adc94c0a049592b9917897949f5d44
ween2008-01-29d01t08.flac:3c577db6d5205f1b12596df7a77d1410
ween2008-01-29d01t09.flac:903f22f0dd2b48d5b826e55c4a4ae171
ween2008-01-29d01t10.flac:13e3f48ad5f396b51d12925b993f099d
ween2008-01-29d01t11.flac:c7115b19c39057fc30697865016ca5ed
ween2008-01-29d02t01.flac:517e4e4349760b04b0feaef042a9790a
ween2008-01-29d02t02.flac:e36b5de95353b82e20fed8f1d9f5e6fe
ween2008-01-29d02t03.flac:b8a6d07435adcf6f04b0fb55ddf6772a
ween2008-01-29d02t04.flac:7ee99d5dbb23c77b31f7314c6d8d8ebb
ween2008-01-29d02t05.flac:20bb2961b3d82555df9bcf8488ee4936
ween2008-01-29d02t06.flac:4cad62d0486092fa2f3a28de82ab5123
ween2008-01-29d02t07.flac:fbc8055483f46d83ef2b64a7e64156e6
ween2008-01-29d02t08.flac:377ee0a2cd7d2e7e5d17c48465264e9e
ween2008-01-29d02t09.flac:22ea154c649a9be24681dfea328c32ad
ween2008-01-29d02t10.flac:a5cb44f00896403543dd53f70966c6ca
ween2008-01-29d02t11.flac:04915b43fe9f4dee1afbe2038b940a80
ween2008-01-29d03t01.flac:56e2d3c2908d077a5094858e0bc7e2eb
ween2008-01-29d03t02.flac:1e56aecf6acf31a1f0b53a8a4065da69
ween2008-01-29d03t03.flac:0cc5398f9fbef8247deb361297000170
ween2008-01-29d03t04.flac:806f40a631b59577056b61610673f4de
ween2008-01-29d03t05.flac:697378018ccfb94098536ba0a9ad63ed
ween2008-01-29d03t06.flac:1a088324806ef86eb5afb03a064502e8
ween2008-01-29d03t07.flac:b6baa7ce01619bcddbdca6f1788d07b8
ween2008-01-29d03t08.flac:3a017cff0a5f270c29a454d8c20fa9e5
ween2008-01-29d03t09.flac:d891b5cca7ca77ec811a038caa1af14c
ween2008-01-29d03t10.flac:19e2fc4866ffe2bd1ee4cca2f645e78a
ween2008-01-29d03t11.flac:615959f932d5899e8038d8841ca0580d
ween2008-01-29d03t12.flac:dc25fa8d054e9ef36e6381e6f55233aa
ween2008-01-29d03t13.flac:f434ccbc4565875c645116023caeee81

  length     expanded size   cdr  WAVE problems filename
     3:22.57       35766908    ---   --   ---xx   ween2008-01-29d01t01.flac
     2:01.30       21415004    ---   --   ---xx   ween2008-01-29d01t02.flac
     5:42.31       60401756    ---   --   ---xx   ween2008-01-29d01t03.flac
     3:35.28       37991900    ---   --   ---xx   ween2008-01-29d01t04.flac
     4:16.32       45233708    ---   --   ---xx   ween2008-01-29d01t05.flac
     3:12.48       33981740    ---   --   ---xx   ween2008-01-29d01t06.flac
     9:37.57      101916908    ---   --   ---xx   ween2008-01-29d01t07.flac
     7:51.53       83209100    ---   --   ---xx   ween2008-01-29d01t08.flac
     4:34.23       48387740    ---   --   ---xx   ween2008-01-29d01t09.flac
     3:31.50       37338044    ---   --   ---xx   ween2008-01-29d01t10.flac
     2:23.30       25295804    ---   --   ---xx   ween2008-01-29d01t11.flac
     4:03.74       43039292    ---   --   ---xx   ween2008-01-29d02t01.flac
     4:51.24       51388892    ---   --   ---xx   ween2008-01-29d02t02.flac
     4:14.73       44977340    ---   --   ---xx   ween2008-01-29d02t03.flac
     4:22.68       46376780    ---   --   ---xx   ween2008-01-29d02t04.flac
     9:08.49       96782492    ---   --   ---xx   ween2008-01-29d02t05.flac
     3:54.12       41305868    ---   --   ---xx   ween2008-01-29d02t06.flac
     2:52.54       30467852    ---   --   ---xx   ween2008-01-29d02t07.flac
     7:01.31       74337356    ---   --   ---xx   ween2008-01-29d02t08.flac
     2:15.11       23839916    ---   --   ---xx   ween2008-01-29d02t09.flac
     3:51.51       40868396    ---   --   ---xx   ween2008-01-29d02t10.flac
     2:59.21       31625036    ---   --   ---xx   ween2008-01-29d02t11.flac
     1:32.11       16254716    ---   --   ---xx   ween2008-01-29d03t01.flac
     5:42.35       60411164    ---   --   ---xx   ween2008-01-29d03t02.flac
     5:07.49       54270092    ---   --   ---xx   ween2008-01-29d03t03.flac
     4:04.34       43121612    ---   --   ---xx   ween2008-01-29d03t04.flac
     4:00.28       42401900    ---   --   ---xx   ween2008-01-29d03t05.flac
     3:56.65       41783324    ---   --   ---xx   ween2008-01-29d03t06.flac
     3:43.17       39377228    ---   --   ---xx   ween2008-01-29d03t07.flac
     8:39.34       91631612    ---   --   ---xx   ween2008-01-29d03t08.flac
     1:28.70       15687884    ---   --   ---xx   ween2008-01-29d03t09.flac
     2:26.02       25759148    ---   --   ---xx   ween2008-01-29d03t10.flac
     1:58.00       20815244    ---   --   ---xx   ween2008-01-29d03t11.flac
     3:11.13       33723020    ---   --   ---xx   ween2008-01-29d03t12.flac
     4:58.15       52602524    ---   --   ---xx   ween2008-01-29d03t13.flac
   150:35.05     1593787300 B                     (totals for 35 files, 0.5149 overall compression ratio)
Show Checksums
ffp
ween2008-01-29d01t01.flac:281242457c585c7e939669f3433a210e
ween2008-01-29d01t02.flac:c7467cff7025b705926ccce7c74f1a49
ween2008-01-29d01t03.flac:d6866dcff6aeb070a8dacf57210c002a
ween2008-01-29d01t04.flac:bf89af0752811bad1db5a55ac0128fef
ween2008-01-29d01t05.flac:8feddec71105a633f0250ee351fc2e15
ween2008-01-29d01t06.flac:ec581908b4af3721ee243ec2420a5420
ween2008-01-29d01t07.flac:e6adc94c0a049592b9917897949f5d44
ween2008-01-29d01t08.flac:3c577db6d5205f1b12596df7a77d1410
ween2008-01-29d01t09.flac:903f22f0dd2b48d5b826e55c4a4ae171
ween2008-01-29d01t10.flac:13e3f48ad5f396b51d12925b993f099d
ween2008-01-29d01t11.flac:c7115b19c39057fc30697865016ca5ed
ween2008-01-29d02t01.flac:517e4e4349760b04b0feaef042a9790a
ween2008-01-29d02t02.flac:e36b5de95353b82e20fed8f1d9f5e6fe
ween2008-01-29d02t03.flac:b8a6d07435adcf6f04b0fb55ddf6772a
ween2008-01-29d02t04.flac:7ee99d5dbb23c77b31f7314c6d8d8ebb
ween2008-01-29d02t05.flac:20bb2961b3d82555df9bcf8488ee4936
ween2008-01-29d02t06.flac:4cad62d0486092fa2f3a28de82ab5123
ween2008-01-29d02t07.flac:fbc8055483f46d83ef2b64a7e64156e6
ween2008-01-29d02t08.flac:377ee0a2cd7d2e7e5d17c48465264e9e
ween2008-01-29d02t09.flac:22ea154c649a9be24681dfea328c32ad
ween2008-01-29d02t10.flac:a5cb44f00896403543dd53f70966c6ca
ween2008-01-29d02t11.flac:04915b43fe9f4dee1afbe2038b940a80
ween2008-01-29d03t01.flac:56e2d3c2908d077a5094858e0bc7e2eb
ween2008-01-29d03t02.flac:1e56aecf6acf31a1f0b53a8a4065da69
ween2008-01-29d03t03.flac:0cc5398f9fbef8247deb361297000170
ween2008-01-29d03t04.flac:806f40a631b59577056b61610673f4de
ween2008-01-29d03t05.flac:697378018ccfb94098536ba0a9ad63ed
ween2008-01-29d03t06.flac:1a088324806ef86eb5afb03a064502e8
ween2008-01-29d03t07.flac:b6baa7ce01619bcddbdca6f1788d07b8
ween2008-01-29d03t08.flac:3a017cff0a5f270c29a454d8c20fa9e5
ween2008-01-29d03t09.flac:d891b5cca7ca77ec811a038caa1af14c
ween2008-01-29d03t10.flac:19e2fc4866ffe2bd1ee4cca2f645e78a
ween2008-01-29d03t11.flac:615959f932d5899e8038d8841ca0580d
ween2008-01-29d03t12.flac:dc25fa8d054e9ef36e6381e6f55233aa
ween2008-01-29d03t13.flac:f434ccbc4565875c645116023caeee81

Comments
Add Comment
Other Sources (comments)
flac16: AKG... (0) flac16: [Neumann... (0)
Date User Comment