Browse Collections Artists Sources   Search Dates

Add Show    List Management    Help


Grateful Dead 04/14/88
Rosemont Horizon, Rosemont, IL
Comments Add Comment    Source Collectors    Add to Collection    Add to Want List    History
Source # 91248 Other Sources
Entered by Matt Vernon
Checksums flac-md5 , ffp
Disc Counts 2 / 2
Media Size
Date Circulated
Date Added
04/18/2008
04/08/2008
Source Summary flac16; Recording Info: SBD -> Cassette Master (TDK SA-X90); Transfer Info: Cassette Master (Nakamichi DR-1) -> Sound Devices 744T (24bit/48k) -> Samplitude Professional v10.02 -> Adobe Audition v1.5 -> FLAC/16 All Transfers and Mastering By Charlie Miller 
  Archive
Source Information - Download Text | Download Zip
Grateful Dead - April 14, 1988
Rosemont Horizon - Chicago, IL

Recording Info:
SBD -> Cassette Master (TDK SA-X90)

Transfer Info:
Cassette Master (Nakamichi DR-1) -> Sound Devices 744T (24bit/48k) ->
Samplitude Professional v10.02 -> Adobe Audition v1.5 -> FLAC/16
(2 Discs Audio / 2 Discs FLAC)

All Transfers and Mastering By Charlie Miller
[email protected]
April 7, 2008

Patch Info:
SBD -> Cassette Master -> Cassette -> Dat -> CD (shnid=26283) supplies:
Bird Song (8:33 - 8:40)

Notes:
-- Disc change is seamless
-- Thanks to Joe B. Jones for his help with the pitch correction

Set 1:
d1t01 - Tuning
d1t02 - Jack Straw
d1t03 - West L.A. Fadeaway
d1t04 - Mama Tried ->
d1t05 - Big River
d1t06 - Althea
d1t07 - When I Paint My Masterpiece
d1t08 - Bird Song ->
d1t09 - The Promised Land

Set 2:
d1t10 - Tuning
d1t11 - Box Of Rain
d1t12 - Iko Iko
d2t01 - Estimated Prophet ->
d2t02 - Eyes Of The World ->
d2t03 - Drums ->
d2t04 - Space ->
d2t05 - The Wheel ->
d2t06 - Gimme Some Lovin ->
d2t07 - Black Peter ->
d2t08 - Throwing Stones ->
d2t09 - Not Fade Away

Encore:
d2t10 - Black Muddy River


SHNTOOL OUTPUT:
    length     expanded size   cdr  WAVE problems filename
     2:49.11       29837516    ---   --   -----   gd88-04-14d1t01.wav
     5:30.14       58244972    ---   --   -----   gd88-04-14d1t02.wav
     8:44.33       92511260    ---   --   -----   gd88-04-14d1t03.wav
     2:42.06       28590956    ---   --   -----   gd88-04-14d1t04.wav
     6:06.47       64672988    ---   --   -----   gd88-04-14d1t05.wav
     8:15.30       87388604    ---   --   -----   gd88-04-14d1t06.wav
     4:36.05       48698204    ---   --   -----   gd88-04-14d1t07.wav
    11:30.28      121781900    ---   --   -----   gd88-04-14d1t08.wav
     4:25.10       46769564    ---   --   -----   gd88-04-14d1t09.wav
     0:26.57        4720508    ---   --   -----   gd88-04-14d1t10.wav
     4:54.34       51941612    ---   --   -----   gd88-04-14d1t11.wav
     5:28.29       57927452    ---   --   -----   gd88-04-14d1t12.wav
    10:45.57      113912108    ---   --   -----   gd88-04-14d2t01.wav
     7:58.40       84413324    ---   --   -----   gd88-04-14d2t02.wav
     6:55.55       73335404    ---   --   -----   gd88-04-14d2t03.wav
     8:20.23       88254140    ---   --   -----   gd88-04-14d2t04.wav
     4:07.29       43639052    ---   --   -----   gd88-04-14d2t05.wav
     4:38.61       49182716    ---   --   -----   gd88-04-14d2t06.wav
     8:16.52       87616748    ---   --   -----   gd88-04-14d2t07.wav
     9:36.63      101754620    ---   --   -----   gd88-04-14d2t08.wav
    10:18.06      109029356    ---   --   -----   gd88-04-14d2t09.wav
     6:22.65       67537724    ---   --   -----   gd88-04-14d2t10.wav
   142:50.05     1511760728 B                     (totals for 22 files)
Show Checksums
flac-md5
02028a256e5519e7ac67799382bcdc81 *gd88-04-14d1t01.flac
82a71650ce33b03c064e7bc22c1b551f *gd88-04-14d1t02.flac
ee89cf26032214cf3c6be6211f738af5 *gd88-04-14d1t03.flac
b8ed8b17e0b3e93ff648a94c52bb5455 *gd88-04-14d1t04.flac
cb21d483579dc704f06fc8b0ddad6acf *gd88-04-14d1t05.flac
5c62824b4491dd1ed1def6ee2d9b373c *gd88-04-14d1t06.flac
ac3962c6435398c63ca7ad7733a8e346 *gd88-04-14d1t07.flac
b643141ca0a27f900daf5f9cf325f2e1 *gd88-04-14d1t08.flac
108f4549b3bf7a83095564afe8a4ea30 *gd88-04-14d1t09.flac
894543f1f3a32cb854c5377fa87bbe93 *gd88-04-14d1t10.flac
73ac7a737ee7158ca759fea612793d41 *gd88-04-14d1t11.flac
d61ea530d4f680f948538ebb4ef3d686 *gd88-04-14d1t12.flac
552ec8b60736d30b1dee5b28c2cd644f *gd88-04-14d2t01.flac
e82aa4358c480170f31b3732a0711e9f *gd88-04-14d2t02.flac
e2aa574b43918bc7d71b59e776a9c93c *gd88-04-14d2t03.flac
fea5954fdb73f2fee59928c37dc6396c *gd88-04-14d2t04.flac
4319ec2deec0b41af65aa828a6e67eab *gd88-04-14d2t05.flac
b9365ed5d07dd1ce122dd5ee8d037ae2 *gd88-04-14d2t06.flac
d120e83ddf498986b4001c116d296e18 *gd88-04-14d2t07.flac
8abd7fecff6080ed3f15fdf4b530cf06 *gd88-04-14d2t08.flac
6f0695055e160b87687f35fc091261dd *gd88-04-14d2t09.flac
8a5dc9f33ae32c0ad54e1b151e4d1905 *gd88-04-14d2t10.flac
ffp
gd88-04-14d1t01.flac:4baec094a8e00479d414256dd2834baa
gd88-04-14d1t02.flac:5a81568615beb8ca65a345fe314a4a08
gd88-04-14d1t03.flac:d8ce1a98baa812a773b14452e1c3c631
gd88-04-14d1t04.flac:6f14e59608fcf6531848b9de408ab87c
gd88-04-14d1t05.flac:ff341bff8804005b0d8b70dadd03968e
gd88-04-14d1t06.flac:f558e7d223a5c7edb76f5b09455ca059
gd88-04-14d1t07.flac:d931f330d30e5fe140f211ab4d8de963
gd88-04-14d1t08.flac:adc4203bf5e6c0fc4c412b6c404524d3
gd88-04-14d1t09.flac:e2682d99ef64c33bc79c6dafb2e36293
gd88-04-14d1t10.flac:cc3f5bcfc228ca0e4f5f0e2e758d793f
gd88-04-14d1t11.flac:3f0b188240a9fd0618fea1292465370e
gd88-04-14d1t12.flac:e512bff91dc1d379ee63190cfa92418d
gd88-04-14d2t01.flac:ab31e5b1c3763bd413479087a5ab2f0d
gd88-04-14d2t02.flac:64ceab4c9507a9d3cbbd83060241cc01
gd88-04-14d2t03.flac:e2630ebcf01cadca9c970d4f4f7195a9
gd88-04-14d2t04.flac:bd3b054c4134ccd32c07325d6a115e5f
gd88-04-14d2t05.flac:75829dd2ef39e6ee3f085235e4077d5f
gd88-04-14d2t06.flac:c4295d3fe5cd96dc204247b2e1d1b784
gd88-04-14d2t07.flac:d7a3003fe387d7bb5907544927566e15
gd88-04-14d2t08.flac:d557d9455a9508f17f766e7baa50fc40
gd88-04-14d2t09.flac:481749d40d41ce33084debcd292dfa15
gd88-04-14d2t10.flac:44b9c22c91b32ce7e3cd215395a1c220

Comments
Add Comment
Other Sources (comments)
AUD>MC*>DAT>CD; *The MC is... (0) SBD (Matrix) > MC > C > DAT... (3) flac24; Master... (0) flac16; Master... (1)
Date User Comment