Browse Collections Artists Sources   Search Dates

Add Show    List Management    Help


Grateful Dead 10/18/83
Cumberland County Civic Center, Portland, ME
Comments Add Comment    Source Collectors    Add to Collection    Add to Want List    History
Source # 91344 Other Sources
Entered by Matt Vernon
Checksums ffp , flac-md5
Disc Counts 2 / 3
Media Size
Date Circulated
Date Added
04/11/2008
04/11/2008
Source Summary flac16; Recording Info: (FOB) Sennheiser 441 + (1) Neumann U87 -> Cassette Master (Nakamichi 550) -> Dat (48k); Transfer Info: Dat (Sony R500) -> Sound Devices 744T -> Samplitude Professional v10.02 -> FLAC; Recorded By Rob Eaton All Transfers and Mastering By Charlie Miller. 
  Archive
Source Information - Download Text | Download Zip
Grateful Dead - October 18, 1983
Cumberland County Civic Center - Portland, ME

Recording Info:
(FOB) Sennheiser 441 + (1) Neumann U87 -> Cassette Master (Nakamichi 550) -> Dat (48k)

Transfer Info:
Dat (Sony R500) -> Sound Devices 744T -> Samplitude Professional v10.02 -> FLAC
(3 Discs Audio / 2 Discs FLAC)

All Transfers and Mastering By Charlie Miller
[email protected]
April 10, 2008

Notes:
-- Set 2 disc change is seamless
-- Recorded By Rob Eaton
-- Dat provided by J.J. Clifton

Set 1:
d1t01 - Tuning
d1t02 - Jack Straw
d1t03 - They Love Each Other
d1t04 - Me And My Uncle ->
d1t05 - Mexicali Blues
d1t06 - Dupree's Diamond Blues
d1t07 - C C Rider
d1t08 - Althea
d1t09 - Lazy Lightnin' ->
d1t10 - Supplication
d1t11 - Might As Well

Set 2:
d2t01 - China Cat Sunflower ->
d2t02 - I Know You Rider
d2t03 - Estimated Prophet ->
d2t04 - He's Gone ->
d2t05 - Drums ->
d3t01 - Space ->
d3t02 - Not Fade Away ->
d3t03 - Black Peter ->
d3t04 - Around And Around ->
d3t05 - Sugar Magnolia

Encore:
d3t06 - U.S. Blues


SHNTOOL OUTPUT:
    length     expanded size   cdr  WAVE problems filename
     2:23.12       25253468    ---   --   -----   gd83-10-18d1t01.wav
     6:43.55       71218604    ---   --   -----   gd83-10-18d1t02.wav
     8:56.52       94672748    ---   --   -----   gd83-10-18d1t03.wav
     2:56.63       31194620    ---   --   -----   gd83-10-18d1t04.wav
     5:43.47       60615788    ---   --   -----   gd83-10-18d1t05.wav
     6:06.07       64578908    ---   --   -----   gd83-10-18d1t06.wav
     9:32.08      100919660    ---   --   -----   gd83-10-18d1t07.wav
    10:15.20      108533084    ---   --   -----   gd83-10-18d1t08.wav
     3:47.01       40045196    ---   --   -----   gd83-10-18d1t09.wav
     8:03.29       85269452    ---   --   -----   gd83-10-18d1t10.wav
     4:34.33       48411260    ---   --   -----   gd83-10-18d1t11.wav
     7:28.08       79046060    ---   --   -----   gd83-10-18d2t01.wav
     7:13.15       76416524    ---   --   -----   gd83-10-18d2t02.wav
    11:53.01      125775596    ---   --   -----   gd83-10-18d2t03.wav
     9:25.54       99793052    ---   --   -----   gd83-10-18d2t04.wav
    10:32.30      111555404    ---   --   -----   gd83-10-18d2t05.wav
     9:09.64       96994172    ---   --   -----   gd83-10-18d3t01.wav
     9:36.10      101629964    ---   --   -----   gd83-10-18d3t02.wav
     8:24.48       89018540    ---   --   -----   gd83-10-18d3t03.wav
     3:42.61       39304316    ---   --   -----   gd83-10-18d3t04.wav
    10:54.56      115497356    ---   --   -----   gd83-10-18d3t05.wav
     5:30.45       58317884    ---   --   -----   gd83-10-18d3t06.wav
   162:53.44     1724061656 B                     (totals for 22 files)
Show Checksums
ffp
gd83-10-18d1t01.flac:cc968aa9f64d2dbbecb076ce93fa0481
gd83-10-18d1t02.flac:4a447240065899405a03c5ab3cd7fbc0
gd83-10-18d1t03.flac:07d7c1aae5e1cb5f4c89e146f22a53c5
gd83-10-18d1t04.flac:8824090e9571bf24c64604394eb6637d
gd83-10-18d1t05.flac:1f4f0d7e36d7bd6af5eb7fa59185337a
gd83-10-18d1t06.flac:ae0762a10e3e710a2e7b2e28812a9adb
gd83-10-18d1t07.flac:de4035b0a892ad6a427850a6b2a26c59
gd83-10-18d1t08.flac:43a30f0edba8dccaf69cd6bf192b1bb9
gd83-10-18d1t09.flac:71da794b882a7e3c02f31b986e5090ef
gd83-10-18d1t10.flac:54fc8f3f9215cf51b25312549755915b
gd83-10-18d1t11.flac:2bbf0b0208ef4bbc98cfcaefc52fc83d
gd83-10-18d2t01.flac:8ef1c2d29a349994167aa03f14d9911a
gd83-10-18d2t02.flac:c761566c0b9bb8077b0b60cc1f99dc3b
gd83-10-18d2t03.flac:5e953cc6b626ce7d05b50da080cf5cd2
gd83-10-18d2t04.flac:e2d28a8228b1b1b5262d45a19fd3e5eb
gd83-10-18d2t05.flac:79ec396e65d5c6852dfce03687c29643
gd83-10-18d3t01.flac:2097e974e07ee0b53c6b01366ae1e24b
gd83-10-18d3t02.flac:4fd98a55947aefaa4cf7077b1aac7de6
gd83-10-18d3t03.flac:04ff5a38d13bb88d7667a81fb4c6b2fd
gd83-10-18d3t04.flac:361495084cf66a4f74956005ccb97f41
gd83-10-18d3t05.flac:9106289a69847c0c029d2e712d9ad04d
gd83-10-18d3t06.flac:c2bf75784261ae8873d0c4175f8c211f
flac-md5
f202eabbd736467895f677d4c4f10ee4 *gd83-10-18d1t01.flac
d117397b4b422b8aa360ace4cc1e1cf4 *gd83-10-18d1t02.flac
eff4312731c40caacde2fedd548cc41a *gd83-10-18d1t03.flac
712478ebdc9f7d1aec9361f14f5611fc *gd83-10-18d1t04.flac
0d662d326173a1f7fc8d5e870407d947 *gd83-10-18d1t05.flac
2e0e707df9f37de9bc0045e90646b002 *gd83-10-18d1t06.flac
8b1ab54dd9ee2b71e432458f011bc2b1 *gd83-10-18d1t07.flac
c321b057a3f4b1629a27c80c571f313d *gd83-10-18d1t08.flac
1a6ee54a5142a426284fbdb234e7bf50 *gd83-10-18d1t09.flac
0b277584e03731b1c0c618d098fdff9b *gd83-10-18d1t10.flac
32e287984698f6dc1e3d071ad08d86bd *gd83-10-18d1t11.flac
d3ab821b5559be589339e4ce366b2879 *gd83-10-18d2t01.flac
ff11546cf8c1e3f306bdda101e0cb96a *gd83-10-18d2t02.flac
8a22fb5167adb2832d19d9f5133f31c5 *gd83-10-18d2t03.flac
cb0f4fa5a318a58d91b73ec22e0c4553 *gd83-10-18d2t04.flac
1aab857e69ba2b5e0c6aa1d3d9a2833b *gd83-10-18d2t05.flac
2eb1fe71e1fd821ff043f1435f14ce67 *gd83-10-18d3t01.flac
09835853323af82ac438488fe40b1777 *gd83-10-18d3t02.flac
e67e1fd5454974a13ee1b585cf7ceb0d *gd83-10-18d3t03.flac
b656d934ae60b842a78b98185d229042 *gd83-10-18d3t04.flac
d294df17855caef6a5fa8c050cfad540 *gd83-10-18d3t05.flac
4e03ea5bfb3d67af6790b04ca2cc07be *gd83-10-18d3t06.flac

Comments
Add Comment
Other Sources (comments)
FOB-AUD> MC> CDR; via Paul... (0) flac16; Set One... (0) flac16; (FOB)... (0) flac16; Lineage:... (0) flac24; (FOB)... (0) flac16; Source: 2... (0) flac16; 3 - Nak... (0) flac24; lineage:... (0) flac16; Master... (0) flac24; Master... (0) flac24; Recording... (0) flac16; Recording... (0) flac1648; Master... (0)
Date User Comment