Browse Collections Artists Sources   Search Dates

Add Show    List Management    Help


Zero 07/10/96
Manhattens, Colorado Springs, CO
Comments Add Comment    Source Collectors    Add to Collection    Add to Want List    History
Source # 91348 Other Sources
Entered by
Checksums ffp , md5
Disc Counts 2 / 1
Media Size
Date Circulated
Date Added
04/12/2008
04/12/2008
Source Summary Recording Info: (Stage) AKG 451 -> Dat (Tascam DA-P1)
Transfer Info: Dat (Sony R500) -> Sound Devices 744T -> Samplitude Professional v10.02 -> FLAC 
Source Information - Download Text | Download Zip
Zero - July 10, 1996
Manhattens - Colorado Springs, CO

Recording Info:
(Stage) AKG 451 -> Dat (Tascam DA-P1)

Transfer Info:
Dat (Sony R500) -> Sound Devices 744T -> Samplitude Professional v10.02 -> FLAC
(2 Discs Audio / 1 Disc FLAC)

All Transfers and Mastering By Charlie Miller
[email protected]
April 10, 2008

Notes:
-- Disc change is seamless
-- Recorded By Art Granoff
-- Dat supplied by JJ Clifton

Setlist:
d1t01 - Tuning
d1t02 - Anorexia
d1t03 - Pits Of Thunder
d1t04 - Catalina
d1t05 - Richie's Rooster
d1t06 - Cole's Law
d1t07 - La Fiesta
d2t01 - Home On The Range


SHNTOOL OUTPUT:
    length     expanded size   cdr  WAVE problems filename
     1:54.70       20274284    ---   --   -----   zero1996-07-10d1t01.wav
    10:48.55      114436604    ---   --   -----   zero1996-07-10d1t02.wav
    16:24.63      173725820    ---   --   -----   zero1996-07-10d1t03.wav
    10:25.26      110311196    ---   --   -----   zero1996-07-10d1t04.wav
     8:28.12       89639468    ---   --   -----   zero1996-07-10d1t05.wav
    14:29.46      153399836    ---   --   -----   zero1996-07-10d1t06.wav
    15:13.51      161173196    ---   --   -----   zero1996-07-10d1t07.wav
    13:32.41      143333276    ---   --   -----   zero1996-07-10d2t01.wav
    91:17.64      966293680 B                     (totals for 8 files)
Show Checksums
ffp
zero1996-07-10d1t01.flac:bb8012f19250c9149366f9816733b09c
zero1996-07-10d1t02.flac:37509919853cfaf793a71d5e408ec178
zero1996-07-10d1t03.flac:2cce7d22f1d538dc7da43b7f10716645
zero1996-07-10d1t04.flac:8674ad6d454372f8f97a49759711c55e
zero1996-07-10d1t05.flac:71b2e1c76f5fefab4d14bcfa612a1d0f
zero1996-07-10d1t06.flac:b571b8457b1df1f06e50f6da4267f5f1
zero1996-07-10d1t07.flac:c90db8fca57609f2b7d86dd550a093f8
zero1996-07-10d2t01.flac:12dbe58f242fd737e2fc92cdf638c143
md5
db463e5e11242ffac6d733a0640959cd *zero1996-07-10d1t01.flac
98c95d689536aeaee85c57b00b3c9bb5 *zero1996-07-10d1t02.flac
228e45649120d20e7bb143e62a747dcb *zero1996-07-10d1t03.flac
40af8ddf15c6a8d00d7c865a3bc62540 *zero1996-07-10d1t04.flac
d353da0d07952dd92137452010ae21c7 *zero1996-07-10d1t05.flac
47aaab5770eed4c8b82534e1dfde29e7 *zero1996-07-10d1t06.flac
518bd0e99a4f4408f65c3f10745a1eb5 *zero1996-07-10d1t07.flac
1d9fca19d71e4f8d243602990ff8396e *zero1996-07-10d2t01.flac

Comments
Add Comment
Date User Comment