Browse Collections Artists Sources   Search Dates

Add Show    List Management    Help


Zero 07/15/96
Josha's, Breckenridge, CO
Comments Add Comment    Source Collectors    Add to Collection    Add to Want List    History
Source # 91350 Other Sources
Entered by
Checksums ffp , md5
Disc Counts 2 / 2
Media Size
Date Circulated
Date Added
04/12/2008
04/12/2008
Source Summary Recording Info: (Stage) AKG 451 -> Dat (Tascam DA-P1)
Transfer Info: Dat (Sony R500) -> Sound Devices 744T -> Samplitude Professional v10.02 -> FLAC
All Transfers and Mastering By Charlie Miller 
Source Information - Download Text | Download Zip
Zero - July 15, 1996
Joshua's - Breckenridge, CO

Recording Info:
(Stage) AKG 451 -> Dat (Tascam DA-P1)

Transfer Info:
Dat (Sony R500) -> Sound Devices 744T -> Samplitude Professional v10.02 -> FLAC
(2 Discs Audio / 2 Discs FLAC)

All Transfers and Mastering By Charlie Miller
[email protected]
April 10, 2008

Notes:
-- With Arnie Green on vocals
-- Anorexia with Jeremy from Electric Swingset on keyboards
-- Recorded By Art Granoff
-- Dat supplied by JJ Clifton

Set 1:
d1t01 - Tuning
d1t02 - Tear Tags Off Mattresses
d1t03 - The Weight
d1t04 - Pits Of Thunder
d1t05 - Can't Keep A Good Man Down
d1t06 - Riding With The King
d1t07 - Catalina
d1t08 - Anorexia

Set 2:
d2t01 - Tuning
d2t02 - Home On The Range
d2t03 - Running On Faith
d2t04 - La Fiesta
d2t05 - Cissy Strut ->
d2t06 - Many Rivers To Cross
d2t07 - Chance In A Million


SHNTOOL OUTPUT:
    length     expanded size   cdr  WAVE problems filename
     4:36.53       48811100    ---   --   -----   zero1996-07-15d1t01.wav
    12:36.05      133370204    ---   --   -----   zero1996-07-15d1t02.wav
    10:51.33      114914060    ---   --   -----   zero1996-07-15d1t03.wav
    11:06.60      117623564    ---   --   -----   zero1996-07-15d1t04.wav
     8:17.26       87731996    ---   --   -----   zero1996-07-15d1t05.wav
     7:26.45       78780284    ---   --   -----   zero1996-07-15d1t06.wav
    11:18.73      119770940    ---   --   -----   zero1996-07-15d1t07.wav
     7:47.11       82404716    ---   --   -----   zero1996-07-15d1t08.wav
     0:45.24        7994492    ---   --   -----   zero1996-07-15d2t01.wav
    11:45.00      124362044    ---   --   -----   zero1996-07-15d2t02.wav
     6:42.60       71053964    ---   --   -----   zero1996-07-15d2t03.wav
    12:03.28      127603100    ---   --   -----   zero1996-07-15d2t04.wav
     6:47.55       71924204    ---   --   -----   zero1996-07-15d2t05.wav
     9:46.00      103370444    ---   --   -----   zero1996-07-15d2t06.wav
     7:20.67       77773628    ---   --   -----   zero1996-07-15d2t07.wav
   129:12.15     1367488740 B                     (totals for 15 files)
Show Checksums
ffp
zero1996-07-15d1t01.flac:54b91b158f52c2d3770f044926765973
zero1996-07-15d1t02.flac:a4a4650bf070d525a426a2db7f6bcd42
zero1996-07-15d1t03.flac:28013cf1681c373f2cb1b42dfe994b2f
zero1996-07-15d1t04.flac:f7577e489698043d2be6d2722dfc9d27
zero1996-07-15d1t05.flac:744da3c4d3f4860d98e16585dacb0a23
zero1996-07-15d1t06.flac:f9236593f4c5c3e8852e270eb2b0e927
zero1996-07-15d1t07.flac:9673ba329aa2ba213bae9cc99a6956ef
zero1996-07-15d1t08.flac:b8cf30773a07bf376fbbced7ed995ad8
zero1996-07-15d2t01.flac:e7c413df8f5804ca246c56458b25fe6c
zero1996-07-15d2t02.flac:b9a83a137a997438e9163c3e48f80f3c
zero1996-07-15d2t03.flac:66e56caadb49a5aff8cfb4566cac7dd6
zero1996-07-15d2t04.flac:0a24cd3be8d0da87cd81754fdf729b10
zero1996-07-15d2t05.flac:107a18da9938a59cf4edee26838eab42
zero1996-07-15d2t06.flac:cb53252c0fa701dbc8ec7f29540f8277
zero1996-07-15d2t07.flac:c23903ea4cc562024c56af5ceed606ad
md5
d70f05e18f6d60d9007037d44c571736 *zero1996-07-15d1t01.flac
a25e579a21f0c7ea571fda157f6d6732 *zero1996-07-15d1t02.flac
feb269fda2509af101e972600ce2a8f8 *zero1996-07-15d1t03.flac
24133cd2be7d58c3c2478cfda028cf12 *zero1996-07-15d1t04.flac
dc440cc7f86dd3b7c7eef4a1814c87fa *zero1996-07-15d1t05.flac
d07f9431c2837746a57e969c8799a3ee *zero1996-07-15d1t06.flac
508104ec17b148c0e263d1051555a080 *zero1996-07-15d1t07.flac
cb1809c8acc7e091a425d4e9ec8f6883 *zero1996-07-15d1t08.flac
c2eea89a90ab25a16e5cf41c6d18ddc4 *zero1996-07-15d2t01.flac
a5ee112fed663bf110e53051c5062801 *zero1996-07-15d2t02.flac
332a3eec2d1d5c4f98895728134aeae2 *zero1996-07-15d2t03.flac
aabe05068fb695cf52111496d82d62e3 *zero1996-07-15d2t04.flac
ac112510291b47f67f88bdd9c68f3e7e *zero1996-07-15d2t05.flac
328beca3584676f08af332d35e049bf0 *zero1996-07-15d2t06.flac
00d7b450bdec441ce1571d4a69ceecee *zero1996-07-15d2t07.flac

Comments
Add Comment
Date User Comment