Browse Collections Artists Sources   Search Dates

Add Show    List Management    Help


Zero 07/11/96
Little Bear Pub, Evergreen, CO
Comments Add Comment    Source Collectors    Add to Collection    Add to Want List    History
Source # 91412 Other Sources
Entered by
Checksums flac.md5 , ffp
Disc Counts 2 / 2
Media Size
Date Circulated
Date Added
04/16/2008
04/16/2008
Source Summary Recording Info:(Stage) AKG 451 -> Dat (Tascam DA-P1); Recorded By Art Granoff; Transfer Info:Dat (Sony R500) -> Sound Devices 744T -> Samplitude Professional v10.02 -> FLAC; All Transfers and Mastering By Charlie Miller 
Source Information - Download Text | Download Zip
Zero - July 11, 1996
Little Bear Saloon - Evergreen, CO

Recording Info:
(Stage) AKG 451 -> Dat (Tascam DA-P1)

Transfer Info:
Dat (Sony R500) -> Sound Devices 744T -> Samplitude Professional v10.02 -> FLAC
(2 Discs Audio / 2 Discs FLAC)

All Transfers and Mastering By Charlie Miller
[email protected]
April 16, 2008

Notes:
-- Recorded By Art Granoff
-- Dat supplied by JJ Clifton

Set 1:
d1t01 - Baby Baby
d1t02 - Tangled Hangers
d1t03 - Catalina
d1t04 - Chance In A Million
d1t05 - Rigor Mortis
d1t06 - The Shape I'm In

Set 2:
d2t01 - Tuning
d2t02 - Berm
d2t03 - Mercury Blues
d2t04 - Little Wing
d2t05 - Use Me Up
d2t06 - Golden Road ->
d2t07 - House of Bamboo (tease)

Encore:
d2t08 - Like A Rolling Stone
d2t09 - Anorexia

SHNTOOL OUTPUT:
    length     expanded size   cdr  WAVE problems filename
     9:38.50      102076844    ---   --   -----   zero1996-07-11d1t01.wav
    13:52.13      146795420    ---   --   -----   zero1996-07-11d1t02.wav
     9:12.10       97396364    ---   --   -----   zero1996-07-11d1t03.wav
    11:32.02      122073548    ---   --   -----   zero1996-07-11d1t04.wav
     9:36.19      101651132    ---   --   -----   zero1996-07-11d1t05.wav
     5:36.46       59378636    ---   --   -----   zero1996-07-11d1t06.wav
     0:53.64        9499772    ---   --   -----   zero1996-07-11d2t01.wav
    11:39.54      123430652    ---   --   -----   zero1996-07-11d2t02.wav
     6:58.16       73772876    ---   --   -----   zero1996-07-11d2t03.wav
    11:22.10      120328364    ---   --   -----   zero1996-07-11d2t04.wav
    10:53.48      115302140    ---   --   -----   zero1996-07-11d2t05.wav
    10:41.44      113175932    ---   --   -----   zero1996-07-11d2t06.wav
     3:33.10       37596764    ---   --   -----   zero1996-07-11d2t07.wav
    10:33.08      111680060    ---   --   -----   zero1996-07-11d2t08.wav
     6:30.39       68887772    ---   --   -----   zero1996-07-11d2t09.wav
   132:33.58     1403046276 B                     (totals for 15 files)
Show Checksums
flac.md5
dddb4b0fcc9f42f331bd6d5995b48b3b *zero1996-07-11d1t01.flac
25f368bc73692dbc17fedeebd942c4ba *zero1996-07-11d1t02.flac
8014f9aa04b3b738e0bb2271dfc046d1 *zero1996-07-11d1t03.flac
0d98c30eb040f41300f975c5843c687d *zero1996-07-11d1t04.flac
b876a955f20da49ceadc92715bbf7663 *zero1996-07-11d1t05.flac
ce154e05dc571952014d01e83f94df9f *zero1996-07-11d1t06.flac
763ebe8ac1c6268f7e2f90a68923e1bd *zero1996-07-11d2t01.flac
69a680aa8503af7bed5bddfdc043d359 *zero1996-07-11d2t02.flac
904d237fa4f657dec2ec74b8986f3b3f *zero1996-07-11d2t03.flac
2f1f4b1235ff93fd71c4162a05bfbb11 *zero1996-07-11d2t04.flac
3447ff8c5528220df061ea26ae91c8a0 *zero1996-07-11d2t05.flac
7fdc50ffcc3f478b81774f612ccc3136 *zero1996-07-11d2t06.flac
1343c013e60cdc84fb68b768ecdf7d76 *zero1996-07-11d2t07.flac
293f41f5b0489fd1dc4896d8f1fca189 *zero1996-07-11d2t08.flac
e7e46cc6c7a6c1a878e91794a6c50781 *zero1996-07-11d2t09.flac
ffp
zero1996-07-11d1t01.flac:3a4e5e6418e41c594a1fe545fc254410
zero1996-07-11d1t02.flac:f6117c611571c22c0f57d5d12818a4ad
zero1996-07-11d1t03.flac:b6dfc19b6aa94424bb0cb40baff549ed
zero1996-07-11d1t04.flac:0b6a4433dba5494a6736ebabc1a99abd
zero1996-07-11d1t05.flac:82320a25a378b610b39a938bc49e1bd5
zero1996-07-11d1t06.flac:f55376026affe9c5af9c0d9daa928346
zero1996-07-11d2t01.flac:b9526e4501a025fd4e3bfab1d60bc101
zero1996-07-11d2t02.flac:c2c1ec7f452eb93d883c163e9528a07a
zero1996-07-11d2t03.flac:3b99e23f6a72677ae49329e12721e7e3
zero1996-07-11d2t04.flac:58af36b1901a5fd086b6d415e684b072
zero1996-07-11d2t05.flac:3d9632806dd730b4af5aabab60ebc2d9
zero1996-07-11d2t06.flac:7042c7a52a7b448fba7fc5d205856626
zero1996-07-11d2t07.flac:b67d1debee452e93520ce9ccd6747855
zero1996-07-11d2t08.flac:df5e18158be9c7a0bc488dc8eaa363a0
zero1996-07-11d2t09.flac:b9b5ea3d06270ebf5e07c108f31de9ed

Comments
Add Comment
Other Sources (comments)
Source: Unknown AUD > ? >... (1) Source: AKGC451E's xy @ the... (0)
Date User Comment