Browse Collections Artists Sources   Search Dates

Add Show    List Management    Help


Drive-By Truckers 03/29/08
The Orange Peel, Asheville, NC
Comments Add Comment    Source Collectors    Add to Collection    Add to Want List    History
Source # 91681 Other Sources
Entered by Kyle pike
Checksums dbt2008-03-29.ak40.flac16
Disc Counts 2 / 2
Media Size
Date Circulated
Date Added
03/30/2008
04/29/2008
Source Summary [16 Bit] Neumann ak40 > lc3 > km100 > Lunatec V3 > Tascam HD-P2 (Gordon Wilson) 
  Archive
Source Information - Download Text | Download Zip
Drive-By Truckers
03/29/2008
The Orange Peel
Asheville, NC

source:   Neumann ak40 > lc3 > km100 (din @ 8') > Lunatec V3 > Tascam HD-P2 @ 24/48
location: directly in front of soundboard dfc 45' from stage
transfer: compact flash card > PC > wavelab 5.01b (fades) > cd wave > flac (level 8)

all editing (fades at beginning and end of set, resampled w/ resampler 192, dither w/ iZotope Ozone 3) done in wavelab 5.01b

*16bit/44.1khz fileset*

recorded and transfered by Gordon Wilson

01. Intro
02. Puttin' People on the Moon
03. A Ghost To Most
04. The Righteous Path
05. Where The Devil Don't Stay
06. Road Cases
07. The Company I Keep
08. Bob
09. I'm Sorry Huston
10. You and Your Crystal Meth
11. Goode's Field Road
12. Three Dimes Down
13. Home Field Advantage
14. Ronnie and Neil
15. Self Destructive Zones
16. Hell No I Ain't Happy
17. Check Out Time In Vegas
18. The Living Bubba
19. Zip City
20. Let There Be Rock

encore:
21. Banter/Spooner intro
22. I'm Your Puppet
23. My Sweet Annette
24. Women Without Whiskey
25. Sink Hole
26. Shut Up and Get on the Plane
27. Buttholeville > *
28. State Trooper > *
29. Buttholeville  *

* w/ Craig (merch guy) on guitar

suggested disc split after track 14


shntool 3.0.4
Copyright (C) 2000-2007 Jason Jordan

    length     expanded size    cdr  WAVE problems  fmt   ratio  filename
     2:32.25       26871644 B   ---   --   ---xx   flac  0.4608  dbt2008-03-29t01.flac
     7:11.10       76051964 B   ---   --   ---xx   flac  0.5531  dbt2008-03-29t02.flac
     4:38.24       49095692 B   ---   --   ---xx   flac  0.5434  dbt2008-03-29t03.flac
     4:48.28       50869100 B   ---   --   ---xx   flac  0.5838  dbt2008-03-29t04.flac
     5:25.36       57414716 B   ---   --   ---xx   flac  0.5997  dbt2008-03-29t05.flac
     2:59.69       31737932 B   ---   --   ---xx   flac  0.5966  dbt2008-03-29t06.flac
     7:54.44       83717132 B   ---   --   ---xx   flac  0.5553  dbt2008-03-29t07.flac
     2:46.53       29407100 B   ---   --   ---xx   flac  0.4962  dbt2008-03-29t08.flac
     3:36.44       38205932 B   ---   --   ---xx   flac  0.4861  dbt2008-03-29t09.flac
     5:11.10       54883964 B   ---   --   ---xx   flac  0.5532  dbt2008-03-29t10.flac
     6:17.07       66519308 B   ---   --   ---xx   flac  0.5170  dbt2008-03-29t11.flac
     3:03.74       32455292 B   ---   --   ---xx   flac  0.5949  dbt2008-03-29t12.flac
     4:45.04       50283452 B   ---   --   ---xx   flac  0.5618  dbt2008-03-29t13.flac
     5:32.49       58680092 B   ---   --   ---xx   flac  0.6068  dbt2008-03-29t14.flac
     3:55.34       41534012 B   ---   --   ---xx   flac  0.5823  dbt2008-03-29t15.flac
     6:36.65       70007324 B   ---   --   ---xx   flac  0.5789  dbt2008-03-29t16.flac
     2:56.22       31098188 B   ---   --   ---xx   flac  0.4623  dbt2008-03-29t17.flac
     6:53.73       73024940 B   ---   --   ---xx   flac  0.5402  dbt2008-03-29t18.flac
     5:31.71       58555436 B   ---   --   ---xx   flac  0.5624  dbt2008-03-29t19.flac
    15:32.72      164574188 B   ---   --   ---xx   flac  0.5063  dbt2008-03-29t20.flac
     1:42.37       18079868 B   ---   --   ---xx   flac  0.4510  dbt2008-03-29t21.flac
     3:53.52       41223548 B   ---   --   ---xx   flac  0.4614  dbt2008-03-29t22.flac
     4:46.08       50469260 B   ---   --   ---xx   flac  0.5165  dbt2008-03-29t23.flac
     4:26.53       47047100 B   ---   --   ---xx   flac  0.5497  dbt2008-03-29t24.flac
     4:31.18       47846780 B   ---   --   ---xx   flac  0.5643  dbt2008-03-29t25.flac
     4:58.58       52703660 B   ---   --   ---xx   flac  0.6022  dbt2008-03-29t26.flac
     3:25.52       36284348 B   ---   --   ---xx   flac  0.5526  dbt2008-03-29t27.flac
     2:47.34       29538812 B   ---   --   ---xx   flac  0.5476  dbt2008-03-29t28.flac
     2:55.57       31004108 B   ---   --   ---xx   flac  0.5588  dbt2008-03-29t29.flac
   141:38.58     1499184892 B                            0.5456  (29 files)
Show Checksums
dbt2008-03-29.ak40.flac16
dbt2008-03-29t01.flac:ed62c831de23d5bcf6d93091d98a6134
dbt2008-03-29t02.flac:7148a51ba579b72bfd32accf22f0c855
dbt2008-03-29t03.flac:3858c429a3e491e55832ef3db3dd284f
dbt2008-03-29t04.flac:873f1faf0d68147032552ba1e3f90d17
dbt2008-03-29t05.flac:84c4dd498fa90925f8e16733a045cba7
dbt2008-03-29t06.flac:bd6f5427a1f6aa164d24c5856515eff3
dbt2008-03-29t07.flac:ef12210463d550e6903e2482d185d161
dbt2008-03-29t08.flac:cd1512b8d4b6b0192c8dcc5b450b63e3
dbt2008-03-29t09.flac:9505ba31930dfd4176dde52c71538876
dbt2008-03-29t10.flac:2dba363c2ecb4f38a8c57b04b9bbf2ac
dbt2008-03-29t11.flac:33e816d1ab4776501e52dbce2b266c7a
dbt2008-03-29t12.flac:f2210ea7315387c89089d70abf523caf
dbt2008-03-29t13.flac:eedb1ac38c354319d34832820fe3af08
dbt2008-03-29t14.flac:34754e6c0a14de545e78277c71b99c4c
dbt2008-03-29t15.flac:0adc280bb10d57d39a0ec497993d70e7
dbt2008-03-29t16.flac:489fe012c2e5b61dfed5289fec387181
dbt2008-03-29t17.flac:373fe9b2558448f05d71c18a833dda15
dbt2008-03-29t18.flac:ddc09a976d1fccddf2236b05e77930ad
dbt2008-03-29t19.flac:c7a0606fcb9e804c0a276b2d0e76d0d2
dbt2008-03-29t20.flac:068b4591972547761f3dba9e5643346e
dbt2008-03-29t21.flac:03875a14a496975f5c3a6dbc084f8385
dbt2008-03-29t22.flac:ffdac61ab9c066f55d4bfe08673b9a95
dbt2008-03-29t23.flac:6d88990c5d1ac48e20664a4374e59145
dbt2008-03-29t24.flac:1ded8f1ad35dce6c7be983b5f98f180c
dbt2008-03-29t25.flac:50206f9aaff2ffc4164b38979fe51f34
dbt2008-03-29t26.flac:f8013a3511204acce8aa18946f0b4636
dbt2008-03-29t27.flac:d649d83bf3666316a532c5d350e319a7
dbt2008-03-29t28.flac:aa289bd4c30bff83519141e2b107bd68
dbt2008-03-29t29.flac:82897809559be14f4f34ca8df9bac258

Comments
Add Comment
Date User Comment