Browse Collections Artists Sources   Search Dates

Add Show    List Management    Help


Jerry Garcia Band 11/23/91
Bradley Center, Milwaukee, WI
Comments Add Comment    Source Collectors    Add to Collection    Add to Want List    History
Source # 91773 Other Sources
Entered by Joe Jupille
Checksums md5 , ffp
Disc Counts 0 / 0
Media Size
Date Circulated
Date Added
05/05/2008
05/07/2008
Source Summary Lineage: Greg Holtz's 2x Nakamichi CM-300 mics with CP-1 caps, worn in hat > Sony D-6 Cassette Recorder; Master Cassettes-(2)-Maxell MX-S 90 transfered at 24/96 on a tascam112 MKII deck>apogee minime>aes-ebu xlr>Lynx2>wavelab6.0 and Mastered on the GEMS Edit Station In Wavelab 6.0, Weiss Saracon Dither to 16/44.1 by Jamie Waddell; trac'ed cdwave,flac'ed flac frontend level 8 
Source Information - Download Text | Download Zip
Jerry Garcia Band
Bradley Center
Milwaukee, WI
November 23, 1991

Taper: Greg Holtz

Lineage: 2x Nakamichi CM-300 mics with CP-1 caps, worn in hat > Sony D-6 Cassette Recorder
Master Cassettes-(2)-Maxell MX-S 90 transfered at 24/96 on a tascam112 MKII deck>apogee minime>aes-ebu xlr>Lynx2>wavelab6.0 and Mastered on the GEMS Edit Station In Wavelab 6.0, Weiss Saracon Dither to 16/44.1 by Jamie Waddell
trac'ed cdwave,flac'ed flac frontend level 8

Originally seeded at Lossless Legs
a www.shnflac.net **GEMS** production


Disc 1
Set I
01. Cats Down Under The Stars
02. They Love Each Other
03. Lay Down Sally
04. The Night They Drove Old Dixie Down
05. Rubin and Cherise
06. Money Honey
07. Sisters and Brothers
08. Deal

Disc 2
Set II
01. Bright Side Of The Road
02. Waiting For A Miracle
03. Think
04. Shining Star
05. Ain't No Bread In The Breadbox
06. Lucky Old Sun
07. Tangled Up In Blue

It was winter in the upper midwest, so this little JGB jaunt was a cold one.  We only saw the Rosemont show the night before, and this one.  There was a bit of a snow flurry as we waited to get inside The Bradley Arena, a fairly new venue in Milwaukee.  To my surprise, I saw more than one taper get refused entry once they found his gear.  So I stashed my gear as well as possible, and looked around for which door seemed to have the most lax security.  It was good research, as we entered without so much as a pat-down.  I think it was because it was my wife (she is a babe:thumbsup and I, and we may have looked like locals, having grown up not far from there.  We were bundled in full midwest winter gear.  Anyway, once inside, we located our seats which were just off the floor (row 4 I think), on the right (Jerry's) side of the stage, just a bit in back of the board.  Without doing a play by play, take a listen and you will hear that it was a very fun show.  I am glad that this particular recording is being launched into the digital realm.  It was my last JGB show.....

Thanks go to Todd and Jamie for the tireless work in front of the ever-evolving GEMS Station.  Keep up the good work.......please...

length     expanded size    cdr  WAVE problems  fmt   ratio  filename
   10:49.11      114509516 B   ---   --   ---xx   flac  0.6196  jgb91-11-23.GEMS.d1t01.flac
    9:05.74       96312092 B   ---   --   ---xx   flac  0.6265  jgb91-11-23.GEMS.d1t02.flac
    9:09.08       96862460 B   ---   --   ---xx   flac  0.6153  jgb91-11-23.GEMS.d1t03.flac
   10:33.22      111712988 B   ---   --   ---xx   flac  0.6206  jgb91-11-23.GEMS.d1t04.flac
    8:55.30       94444604 B   ---   --   ---xx   flac  0.6356  jgb91-11-23.GEMS.d1t05.flac
    6:43.52       71211548 B   ---   --   ---xx   flac  0.6327  jgb91-11-23.GEMS.d1t06.flac
    4:00.18       42378380 B   ---   --   ---xx   flac  0.6178  jgb91-11-23.GEMS.d1t07.flac
    8:33.44       90596732 B   ---   --   ---xx   flac  0.6394  jgb91-11-23.GEMS.d1t08.flac
    5:38.36       59707916 B   ---   --   ---xx   flac  0.6317  jgb91-11-23.GEMS.d2t01.flac
    6:50.08       72342860 B   ---   --   ---xx   flac  0.6449  jgb91-11-23.GEMS.d2t02.flac
    8:15.58       87454460 B   ---   --   ---xx   flac  0.6531  jgb91-11-23.GEMS.d2t03.flac
   12:53.72      136526588 B   ---   --   ---xx   flac  0.6402  jgb91-11-23.GEMS.d2t04.flac
    9:37.20      101829884 B   ---   --   ---xx   flac  0.6571  jgb91-11-23.GEMS.d2t05.flac
   11:51.62      125566268 B   ---   --   ---xx   flac  0.5931  jgb91-11-23.GEMS.d2t06.flac
   12:15.71      129821036 B   ---   --   ---xx   flac  0.6403  jgb91-11-23.GEMS.d2t07.flac
  135:13.61     1431277332 B                            0.6308  (15 files)
Show Checksums
md5
c35574ba8b75227c0afa2decf4cde3ea *jgb91-11-23.GEMS.d1t01.flac
055549eeb025f70ba25980b3f3e0bd31 *jgb91-11-23.GEMS.d1t02.flac
0996e4827d518a93804af908d6c34b27 *jgb91-11-23.GEMS.d1t03.flac
6be8acf772e8f71adc0299392a26dcc7 *jgb91-11-23.GEMS.d1t04.flac
43822f5ad6a89594a838ef71141ad06e *jgb91-11-23.GEMS.d1t05.flac
6d610562a058347fdabcf2fcec37d633 *jgb91-11-23.GEMS.d1t06.flac
fc450001e9adda63088991784a4d117e *jgb91-11-23.GEMS.d1t07.flac
f09a0d2eb6aa0802a5587dc5ad1db061 *jgb91-11-23.GEMS.d1t08.flac
b6632f63861ae576736fd4586a2be3db *jgb91-11-23.GEMS.d2t01.flac
3ef67fe73ed6941ed055b247bfb424cf *jgb91-11-23.GEMS.d2t02.flac
1a9031758d72476af86e348fb1eb7752 *jgb91-11-23.GEMS.d2t03.flac
263fecc19c22ba171ec453beed21a2a1 *jgb91-11-23.GEMS.d2t04.flac
623ceb00585407b09da231fce651f568 *jgb91-11-23.GEMS.d2t05.flac
698ef32f6230e91ae63c1c1805daa448 *jgb91-11-23.GEMS.d2t06.flac
881ec91272176141e53a7ba3384d0435 *jgb91-11-23.GEMS.d2t07.flac
ffp
jgb91-11-23.GEMS.d1t01.flac:bc1abf2295b1367a0ea6d7786f1d6b53
jgb91-11-23.GEMS.d1t02.flac:15d71cf71ec3775c82bb647d76e8049f
jgb91-11-23.GEMS.d1t03.flac:eafb69cf872507a3d737efe0a97e5225
jgb91-11-23.GEMS.d1t04.flac:35a756a5973c9192d1b451a97f81863b
jgb91-11-23.GEMS.d1t05.flac:2b7fa260d1e8ddea5e74de58fa84b637
jgb91-11-23.GEMS.d1t06.flac:7af994e421cc342be3837b1aec34f9af
jgb91-11-23.GEMS.d1t07.flac:0868e2be35d918bdb04d3831a449ee24
jgb91-11-23.GEMS.d1t08.flac:50383f1878f0e4cb17b6557bbe6a17fe
jgb91-11-23.GEMS.d2t01.flac:9022fe3c61dfc89cc19f50756e6a2270
jgb91-11-23.GEMS.d2t02.flac:3210b45750f6edf461f684486e439c00
jgb91-11-23.GEMS.d2t03.flac:cc565b42c561277d19cf621575bb54ad
jgb91-11-23.GEMS.d2t04.flac:8a24c666cb0d025a75d7985aa09e1e52
jgb91-11-23.GEMS.d2t05.flac:e1aa7594e82316d07b861a747bc61d58
jgb91-11-23.GEMS.d2t06.flac:75a8f8f91e06b8e1373d8ccb29ef848e
jgb91-11-23.GEMS.d2t07.flac:727df2257ed8e7dab6420ed0b4129288

Comments
Add Comment
Date User Comment