Browse Collections Artists Sources   Search Dates

Add Show    List Management    Help


Phil Lesh & Friends 11/08/07
Nokia Theater, New York, NY
Comments Add Comment    Source Collectors    Add to Collection    Add to Want List    History
Source # 91824 Other Sources
Entered by Matt Vernon
Checksums ffp
Disc Counts 2 / 3
Media Size
Date Circulated
Date Added
05/08/2008
05/11/2008
Source Summary SBD/AUD Matrix of fixed SBD source 89595 and AUD source 88759 by SIRMick. 
  Archive
Source Information - Download Text | Download Zip
PHil Lesh And Friends
Nokia Theatre, Times Square
New York, NY
08/11/ 2007

Matrix sources:

1) Official soundboard from www.phillesh.net (re-edited version by Muletaper 01/22/2008)

2) Neumann KM-150s (AK-50 Hypercardiod Capsules) + DPA 4021s (Cardiods) > Edirol R4 (Oade Mod) > 4 Track 24bit
     48kHz wav files > digital coaxial > M-Audio Microtrack (2-channel mixdown) > CD Wave 1.95 > Flac Frontend (Level 8)
     > 24/48 Flac
     Taped and transferred by Dan Lynch
    


Disc 1
set I

01   Passenger
02   I'm So Gone
03   Mexican Girl
04   Pride Of Cucamonga
05   Deep Elem Blues
06   crowd/tuning
07   Bird Song
08   Alabama Getaway


Disc 2
set II

01   Playing In The Band >
02   Althea
03   Cold Black Devil >
04   Feedback >
05   Caution (Do Not Step On The Tracks) >
06   New Speedway Boogie >


Disc 3
set II cont'd

01   Unbroken Chain
02   crowd/tuning
03   Scarlet Begonias >
04   Fire On The Mountain
05   crowd/Donor Rap/ band intros

Encore

06   A Hard Rain's A-Gonna Fall



Phil Lesh - bass, vocals
Jackie Greene - guitar, vocals
Larry Campbell - guitar & more
Steve Molitz - keyboards
John Molo - drums


Notes:

- The aud source was downsampled with Voxengo r8brain to 16/44.1 and dithered with iZotope Ozone (MBIT+)
- The gain on the left channel of the matrix was reduced by 1.3 decibels
- Seamless change between d2 and d3



Matrixed by
SIRMick
May 2008


shntool ioutput:

    length     expanded size   cdr  WAVE problems filename
     6:07.10       64762364    ---   --   ---xx   paf2007-11-08d1t01.flac
     8:45.32       92685308    ---   --   ---xx   paf2007-11-08d1t02.flac
     8:48.14       93172172    ---   --   ---xx   paf2007-11-08d1t03.flac
     7:26.38       78763820    ---   --   ---xx   paf2007-11-08d1t04.flac
     8:22.65       88705724    ---   --   ---xx   paf2007-11-08d1t05.flac
     2:19.73       24691340    ---   --   ---xx   paf2007-11-08d1t06.flac
    14:50.15      157031324    ---   --   ---xx   paf2007-11-08d1t07.flac
     7:21.11       77818316    ---   --   ---xx   paf2007-11-08d1t08.flac
    13:22.47      141583388    ---   --   ---xx   paf2007-11-08d2t01.flac
    12:28.38      132036620    ---   --   ---xx   paf2007-11-08d2t02.flac
     7:38.61       80934716    ---   --   ---xx   paf2007-11-08d2t03.flac
     1:54.11       20135516    ---   --   ---xx   paf2007-11-08d2t04.flac
    15:21.18      162506780    ---   --   ---xx   paf2007-11-08d2t05.flac
    17:26.13      184545020    ---   --   ---xx   paf2007-11-08d2t06.flac
    14:33.17      154037228    ---   --   ---xx   paf2007-11-08d3t01.flac
     1:16.60       13547564    ---   --   ---xx   paf2007-11-08d3t02.flac
    10:12.32      108032108    ---   --   ---xx   paf2007-11-08d3t03.flac
    10:47.69      114293132    ---   --   ---xx   paf2007-11-08d3t04.flac
     4:11.44       44379932    ---   --   ---xx   paf2007-11-08d3t05.flac
    11:23.62      120627068    ---   --   ---xx   paf2007-11-08d3t06.flac
   184:38.55     1954289440 B                     (totals for 20 files, 0.5290 overall compression ratio)

Show Checksums
ffp
paf2007-11-08d1t01.flac:9dd4a0facad682a17091f7a66ca6dbf7
paf2007-11-08d1t02.flac:f25dc6f2c7d0b48aea9818f3bf078351
paf2007-11-08d1t03.flac:34f4c79143163e65586e289cd9250f9e
paf2007-11-08d1t04.flac:bfb846c52d552ca11377a431cf126dcf
paf2007-11-08d1t05.flac:c4e9b4f985c9998ab979b87b22ebed82
paf2007-11-08d1t06.flac:9adeb293978ffcdaacb8bc9981233e22
paf2007-11-08d1t07.flac:0e881f196ca4f6fa8d489112b941c5d8
paf2007-11-08d1t08.flac:edb2282a370b1a9ac539e8808818755a
paf2007-11-08d2t01.flac:80e1de2a53817e7c257ac91e6d6fcfc9
paf2007-11-08d2t02.flac:4fd0ed0c46f5973d576059b2b2cfb80c
paf2007-11-08d2t03.flac:ca1eff21989a9eff6d64cce08592c495
paf2007-11-08d2t04.flac:e203b6af331198c9e2cc421dbf2ab1d5
paf2007-11-08d2t05.flac:74c297a46c9bd9d5888662a678270a10
paf2007-11-08d2t06.flac:fb21c22628eeeb16ef3cdaf3748b207e
paf2007-11-08d3t01.flac:f4880c8464534206a4c99d6cf413d5c2
paf2007-11-08d3t02.flac:2f1355bf0f9900af2c0096567a019b42
paf2007-11-08d3t03.flac:0f42cb595e06a8abb963fde7438ad51d
paf2007-11-08d3t04.flac:77e6f446265747ed0f94649fe3f4f9e0
paf2007-11-08d3t05.flac:6519c7f1b92d8b8669560c9548f93799
paf2007-11-08d3t06.flac:9d4bcedb3a180fb4270918c842130edd

Comments
Add Comment
Other Sources (comments)
nak 100 mics > sony sbm1 >... (0) ***24 bit*** recording... (0) recording info: ots, roc,... (0) a mid/side stereo recording... (0) **24bit flac** Neumann... (0) FREE SOUNDBOARD (0) THIS SOUNDBOARD IS **FREE**... (0) Digital Audience Master... (0)
Date User Comment