Browse Collections Artists Sources   Search Dates

Add Show    List Management    Help


Grateful Dead 07/19/94
Deer Creek Music Center, Noblesville, IN
Comments Add Comment    Source Collectors    Add to Collection    Add to Want List    History
Source # 91836 Other Sources
Entered by Matt Vernon
Checksums ffp , flac-md5
Disc Counts 2 / 3
Media Size
Date Circulated
Date Added

05/13/2008
Source Summary flac16; Taper: Greg Holtz Source: Nakamichi Cm300's with Cp-4 guns/PZM 30D's mix-> D3 DAT Transfer: (By JAZ) DAT Master-> PCM-R300-> Coax-> M-Audio Delta 1010Lt-> Wave Lab 5.0, Mastering Software-> Traders Little Helper flac8 
  Archive
Source Information - Download Text | Download Zip
Grateful Dead
Deer Creek
Noblesville, IN
July 19th 1994

Taper: Greg Holtz

Source: Nakamichi Cm300's with Cp-4 guns/PZM 30D's mix-> D3 DAT

Transfer: (By JAZ) DAT Master-> PCM-R300-> Coax-> M-Audio Delta 1010Lt-> Wave Lab 5.0, Mastering Software-> Traders Little Helper flac8

Set 1
1.Shakedown Street
2.Walkin' Blues
3.Jack A Roe
4.Big River*->
5.Maggie's Farm*
6.Broken Arrow
7.Tennessee Jed
8.Ain't No Easy Answers

Set 2
9.Foolish Heart->
10.Saint Of Circumstance->
11.I Want to Tell You->
12.Playing In The Band->
13.Drums->
14.Space->
15.Wharf Rat->
16.Throwing Stones->
17.Not Fade Away

Encore:
18.The Rain Song

Note: * Weir on acoustic guitar

SHNTOOL:
    length     expanded size    cdr  WAVE problems  fmt   ratio  filename
    17:25.36      184422716 B   ---   --   ---xx   flac  0.4763  GD1994-07-19trk01.flac
     6:05.69       64548332 B   ---   --   ---xx   flac  0.4729  GD1994-07-19trk02.flac
     6:37.44       70134332 B   ---   --   ---xx   flac  0.4436  GD1994-07-19trk03.flac
     5:44.60       60822764 B   ---   --   ---xx   flac  0.4809  GD1994-07-19trk04.flac
     8:05.73       85725740 B   ---   --   ---xx   flac  0.4740  GD1994-07-19trk05.flac
     6:07.49       64854092 B   ---   --   ---xx   flac  0.4567  GD1994-07-19trk06.flac
     8:26.70       89423084 B   ---   --   ---xx   flac  0.4738  GD1994-07-19trk07.flac
     7:11.59       76167212 B   ---   --   ---xx   flac  0.4899  GD1994-07-19trk08.flac
    13:12.37      139795868 B   ---   --   ---xx   flac  0.4814  GD1994-07-19trk09.flac
     7:29.13       79234220 B   ---   --   ---xx   flac  0.5048  GD1994-07-19trk10.flac
     4:08.63       43895420 B   ---   --   ---xx   flac  0.5043  GD1994-07-19trk11.flac
    17:12.73      182216540 B   ---   --   ---xx   flac  0.4768  GD1994-07-19trk12.flac
     6:27.00       68266844 B   ---   --   ---xx   flac  0.4873  GD1994-07-19trk13.flac
    16:08.40      170849324 B   ---   --   ---xx   flac  0.4160  GD1994-07-19trk14.flac
    11:07.30      117729404 B   ---   --   ---xx   flac  0.4644  GD1994-07-19trk15.flac
    10:19.37      109278668 B   ---   --   ---xx   flac  0.5032  GD1994-07-19trk16.flac
     9:55.26      105019196 B   ---   --   ---xx   flac  0.4835  GD1994-07-19trk17.flac
     6:24.68       67897580 B   ---   --   ---xx   flac  0.4739  GD1994-07-19trk18.flac
   168:12.22     1780281336 B                            0.4729  (18 files)
Show Checksums
ffp
GD1994-07-19trk01.flac:6f3219c2b257156b88efb6546f77fe79
GD1994-07-19trk02.flac:0a0797ea081917a5a256d0a523522b47
GD1994-07-19trk03.flac:617af9e8638c29e2cd825bfd4c15f009
GD1994-07-19trk04.flac:68728521e448af1cdc042a0403a9aa44
GD1994-07-19trk05.flac:f65d44dcee581e0c7e02dd1260e627a7
GD1994-07-19trk06.flac:67067bb7a80f3f2044d7f2dcb9c02dce
GD1994-07-19trk07.flac:f3a612ad602a57d66ca42ffd14fd5300
GD1994-07-19trk08.flac:5820c572db948cf6f6414a4341b5531c
GD1994-07-19trk09.flac:8cd4f0910d281cb9cc16cf6eec5d3644
GD1994-07-19trk10.flac:fe2514ab3ba20df9afd149ce499f4779
GD1994-07-19trk11.flac:75a605cb2027bade30c433db65d0a0a4
GD1994-07-19trk12.flac:9b4a18442b4bcc222dc8fa987b3c70df
GD1994-07-19trk13.flac:de0fe01b01d2d804f6f7a2b6c1cf8c77
GD1994-07-19trk14.flac:00515893d9cfcca1a5f88681bf81981b
GD1994-07-19trk15.flac:390bdf9744aa3e38af860195ef31fe0c
GD1994-07-19trk16.flac:c8041330da27cb71ac500d6986df363f
GD1994-07-19trk17.flac:d0f6066cd8911e097760f60fc001288f
GD1994-07-19trk18.flac:ac7407d3e5b09670ea2ffd5a52709667
flac-md5
ac45efe94b2eef286ed9a5f19c963ece *GD1994-07-19trk01.flac
5a0f7d94b99129b60b7514ddfbb0a6d0 *GD1994-07-19trk02.flac
1b4b34a1d41b691aaa61619853e1baa9 *GD1994-07-19trk03.flac
40c311e31a3ed8b8fe454e3509a5645a *GD1994-07-19trk04.flac
51a669c08102a10e02b85ca8d041e9a3 *GD1994-07-19trk05.flac
dbcc5b883ca087616a87d27ad2476e75 *GD1994-07-19trk06.flac
de78adf13ae5331e38692614a51c1d76 *GD1994-07-19trk07.flac
31479ae9d6c00e5733b9a695b047dc27 *GD1994-07-19trk08.flac
02889a75bf995483872f7264ba1722e0 *GD1994-07-19trk09.flac
e145c8dead7de85b9a2902743de4132f *GD1994-07-19trk10.flac
c2f01e7d29085a26901424ff70ee8b17 *GD1994-07-19trk11.flac
9ac31019f95687804014467c7d5781e1 *GD1994-07-19trk12.flac
795a24d014fe3cf0904b942045157e23 *GD1994-07-19trk13.flac
f4ef188969cca308e70e8bf222b360cf *GD1994-07-19trk14.flac
243f3e6be5318201f28e9bf8f504b147 *GD1994-07-19trk15.flac
670402c3bbf6a5013e6f2f50dbf8816a *GD1994-07-19trk16.flac
0af94ce0e9760f379799578c1210b616 *GD1994-07-19trk17.flac
cb02408796fdf410251bddf7399f8c71 *GD1994-07-19trk18.flac

Comments
Add Comment
Other Sources (comments)
DSBd>?>CDR; Seeded to etree... (1) AudioTechnica 815A... (0) flac16; Fix of (2) flac16; Set 2 only,... (0) flac16; Nak 300's >... (0)
Date User Comment