Browse Collections Artists Sources   Search Dates

Add Show    List Management    Help


Grateful Dead 07/21/94
Deer Creek Music Center, Noblesville, IN
Comments Add Comment    Source Collectors    Add to Collection    Add to Want List    History
Source # 91838 Other Sources
Entered by Matt Vernon
Checksums ffp , flac-md5
Disc Counts 2 / 3
Media Size
Date Circulated
Date Added
current
05/13/2008
Source Summary flac16; Taper: Greg Holtz Source: Nakamichi Cm300's with Cp-4 guns/PZM 30D's mix-> D3 DAT Transfer: (BY JAZ) DAT master-> Sony PCM R-300-> COAX-> M-Audio Delta 1010Lt-> Wave Lab 5.0, Mastering Software-> Traders Little Helper flac8 
  Archive
Source Information - Download Text | Download Zip
Grateful Dead
Deer Creek Music Center
Noblesville, IN
July 21st 1994

Taper: Greg Holtz

Source: Nakamichi Cm300's with Cp-4 guns/PZM 30D's mix-> D3 DAT

Transfer: (BY JAZ) DAT master-> Sony PCM R-300-> COAX-> M-Audio Delta 1010Lt-> Wave Lab 5.0, Mastering Software-> Traders Little Helper flac8

Set I
1.Touch Of Grey
2.Greatest Story Ever Told
3.Jack A Roe
4.The Same Thing
5.Stagger Lee
6.Me & My Uncle*->
7.Mexicali Blues*
8.Ramble On Rose
9.The Music Never Stopped

Set II
10.Women Are Smarter
11.If The Shoe Fits
12.Way to Go Home
13.Help On The Way-> Slipknot!->
14.Franklin's Tower->
15.Drums->
16.Space->
17.All Along The Watchtower->
18.The Days Between->
19.Good Lovin'

Encore:
20.Liberty

Note: * Weir on acoustic guitar

SHNTOOL:
    length     expanded size    cdr  WAVE problems  fmt   ratio  filename
     9:36.14      101639372 B   ---   --   ---xx   flac  0.5427  GD1994-07-21trk01.flac
     4:04.57       43175708 B   ---   --   ---xx   flac  0.5773  GD1994-07-21trk02.flac
     5:21.48       56737340 B   ---   --   ---xx   flac  0.5434  GD1994-07-21trk03.flac
     7:36.63       80586620 B   ---   --   ---xx   flac  0.5405  GD1994-07-21trk04.flac
     7:00.37       74175068 B   ---   --   ---xx   flac  0.5459  GD1994-07-21trk05.flac
     4:04.24       43098092 B   ---   --   ---xx   flac  0.5353  GD1994-07-21trk06.flac
     5:37.52       59569148 B   ---   --   ---xx   flac  0.5727  GD1994-07-21trk07.flac
     8:30.31       90036956 B   ---   --   ---xx   flac  0.5527  GD1994-07-21trk08.flac
     9:51.14      104285372 B   ---   --   ---xx   flac  0.5599  GD1994-07-21trk09.flac
     9:57.30      105381404 B   ---   --   ---xx   flac  0.5413  GD1994-07-21trk10.flac
     6:39.05       70395404 B   ---   --   ---xx   flac  0.5497  GD1994-07-21trk11.flac
     6:36.49       69969692 B   ---   --   ---xx   flac  0.5651  GD1994-07-21trk12.flac
    13:28.66      142686476 B   ---   --   ---xx   flac  0.5588  GD1994-07-21trk13.flac
    13:45.20      145577084 B   ---   --   ---xx   flac  0.5656  GD1994-07-21trk14.flac
     6:22.19       67429532 B   ---   --   ---xx   flac  0.5489  GD1994-07-21trk15.flac
    25:21.23      268358540 B   ---   --   ---xx   flac  0.4531  GD1994-07-21trk16.flac
     7:10.61       75995516 B   ---   --   ---xx   flac  0.5388  GD1994-07-21trk17.flac
    13:15.15      140273324 B   ---   --   ---xx   flac  0.5110  GD1994-07-21trk18.flac
     9:42.69      102827132 B   ---   --   ---xx   flac  0.5668  GD1994-07-21trk19.flac
     7:49.36       82816316 B   ---   --   ---xx   flac  0.5461  GD1994-07-21trk20.flac
   181:52.58     1925014096 B                            0.5363  (20 files)
Show Checksums
ffp
GD1994-07-21trk01.flac:0d7e314b76f1adf86c6e3dbcafe0a241
GD1994-07-21trk02.flac:fd9b75a4db4cef32281a8c9063805103
GD1994-07-21trk03.flac:905847e9a3a11afcd505ea889e1d01c0
GD1994-07-21trk04.flac:464a2fab9416dcdf34f45f4354a6092b
GD1994-07-21trk05.flac:768c5ce5ba8090dbcbc77a1492b28a74
GD1994-07-21trk06.flac:1a3d26ea8e4a5f89ee27c0ef9b6bade6
GD1994-07-21trk07.flac:5987e16d7007a16fbb662b1fab45d668
GD1994-07-21trk08.flac:ea3b924e88479ef176d87a13f83a33e6
GD1994-07-21trk09.flac:d0dfd61e9a16801c3c29625110ffaf87
GD1994-07-21trk10.flac:072426238246c049497a2d162b7e8517
GD1994-07-21trk11.flac:41e91e10157814cf3c0dfd6697f961ce
GD1994-07-21trk12.flac:79f6f73cc16d7e6bb6259beba7f6cd6b
GD1994-07-21trk13.flac:eaabc3a1d8b13b2cc826ebb94d35bfbf
GD1994-07-21trk14.flac:8451ea9dd444e279147982aa4eb2c797
GD1994-07-21trk15.flac:d06a0e62162e162b7e970a0d1e504b26
GD1994-07-21trk16.flac:56c9219a1118c415886ef58a06462329
GD1994-07-21trk17.flac:4a9f51a0e8630991652ac035d864f9c5
GD1994-07-21trk18.flac:209484f8f320c73a5a3c67f7a8c9e734
GD1994-07-21trk19.flac:58a57cdd053d57cd06c08242bd8a49a5
GD1994-07-21trk20.flac:2e36bab2f34d3fdc01823178273a85e4
flac-md5
a9593d68ecfdaa566f82714f76f9403d *GD1994-07-21trk01.flac
12873003aac1d16e55951cec13a90c20 *GD1994-07-21trk02.flac
a1c3fd8465eba3e402247448e7158eb2 *GD1994-07-21trk03.flac
406928603da543c2cc4017a75c1216e6 *GD1994-07-21trk04.flac
858c0c30f126427b54bb3a42347d1269 *GD1994-07-21trk05.flac
9c2a5aabc636bfb34f1dafcaed4536f6 *GD1994-07-21trk06.flac
9f90fdd87f07414bfcde5b284b4f3405 *GD1994-07-21trk07.flac
aa461845be2487e59396e2ebf3281282 *GD1994-07-21trk08.flac
38cb37460539ea7a01cf4a8f93ba51d2 *GD1994-07-21trk09.flac
b5cbe0fbd8458f6d97998089a7de0288 *GD1994-07-21trk10.flac
c58db5e36bc11b6aef0dd84de51bd83d *GD1994-07-21trk11.flac
5539f84fa0ee0576c97f642bbcd3bec2 *GD1994-07-21trk12.flac
bd8859c4f7e5522f56bc451f70178e69 *GD1994-07-21trk13.flac
e853f1cafed0f23821a09f7aee8dc7fb *GD1994-07-21trk14.flac
daf0c743d31e4f2e3eb6ac025cc527d2 *GD1994-07-21trk15.flac
ac1e7ab068697267b6d0039ecd2e5fa7 *GD1994-07-21trk16.flac
ae7a3bc01275e93ae075daf46185f524 *GD1994-07-21trk17.flac
21d5325366d863a91bfd5ce0149806d3 *GD1994-07-21trk18.flac
52278a23140942a848bf0ecdb548226f *GD1994-07-21trk19.flac
625be3c177f011093849c9ba78f1db88 *GD1994-07-21trk20.flac

Comments
Add Comment
Other Sources (comments)
SBD> ?> DAT> CD> Cool Edit>... (0) AUD (mic unk) >DAT>CD; via... (0) Shntool fix (by Chris... (0) Source: FOB Shure BG 4.0's... (0) Source: A:D(48kHz) no mic... (2) Source: Nak 300's/cp4's >... (0) flac16; (OTS) AKG... (0) flac16; Source:... (0) flac16/44.1 Source... (0)
Date User Comment