Browse Collections Artists Sources   Search Dates

Add Show    List Management    Help


Grateful Dead 03/25/90
Knickerbocker Arena, Albany, NY
Comments Add Comment    Source Collectors    Add to Collection    Add to Want List    History
Source # 91879 Other Sources
Entered by Matt Vernon
Checksums ffp , flac-md5
Disc Counts 2 / 3
Media Size
Date Circulated
Date Added
05/15/2008
05/15/2008
Source Summary flac16; AUD: Nakamichi CM300's w/CP-4 shotguns > Sony TC-D5M > Maxell MX-90/100, with no Dolby. Mics on 7-foot stand in front of OTS. Taped by Ted Gidley. Transfer: MAC > Nakamichi DR-8 (no Dolby) > Audiophile 2496 > Soundforge > CD-Wave > TLH > FLAC, May 2008. Transfer by Andrew F. 
  Archive
Source Information - Download Text | Download Zip
GRATEFUL DEAD
Knickerbocker Arena
Albany NY
03-25-1990

Disc One (61:44)

01 crowd & tuning
02 Greatest Story Ever Told >
03 Touch of Grey
04 Wang Dang Doodle
05 Good Time Blues
06 Jackaroe
07 When I Paint My Masterpiece
08 Birdsong
09 Let it Grow
-- set break --

Disc Two (49:34)

01 Eyes of the World >
02 Samson & Delilah >
03 Crazy Fingers >
04 Truckin' >
05 Spoonful >
06 Drums >

Disc Three (41:34)

01 Space >
02 I Will Take You Home >
03 Goin' Down the Road >
04 Black Peter >
05 Around & Around
-- encore --
06 crowd & tuning
07 The Mighty Quinn

AUD:
Nakamichi CM300's w/CP-4 shotguns > Sony TC-D5M > Maxell MX-90/100, with no Dolby. Mics on 7-foot stand in front of OTS. Taped by Ted Gidley.

Transfer:
MAC > Nakamichi DR-8 (no Dolby) > Audiophile 2496 > Soundforge > CD-Wave > TLH > FLAC, May 2008. Transfer by Andrew F.

Notes:
- Patch from ShnID-28389 provides crowd noise before Eyes, 0:00 > 0:14.
- Patch 2:34 > 2:46 in Space, taken from MAC that was next in line.
- Second set disc break is seamless.
- Two disc burn option: split discs between Eyes and Samson.

    length     expanded size    cdr  WAVE problems  fmt   ratio  filename
     0:36.08        6369260 B   ---   --   ---xx   flac  0.5227  gd1990-03-25d1t01.flac
     3:52.23       40978940 B   ---   --   ---xx   flac  0.5857  gd1990-03-25d1t02.flac
     6:58.48       73848140 B   ---   --   ---xx   flac  0.5895  gd1990-03-25d1t03.flac
     7:20.45       77721884 B   ---   --   ---xx   flac  0.5807  gd1990-03-25d1t04.flac
     8:12.43       86889980 B   ---   --   ---xx   flac  0.5804  gd1990-03-25d1t05.flac
     4:38.23       49093340 B   ---   --   ---xx   flac  0.5848  gd1990-03-25d1t06.flac
     5:30.50       58329644 B   ---   --   ---xx   flac  0.5886  gd1990-03-25d1t07.flac
    13:06.37      138737468 B   ---   --   ---xx   flac  0.5751  gd1990-03-25d1t08.flac
    11:28.37      121450268 B   ---   --   ---xx   flac  0.5734  gd1990-03-25d1t09.flac
    13:15.69      140400332 B   ---   --   ---xx   flac  0.5812  gd1990-03-25d2t01.flac
     7:39.44       81071132 B   ---   --   ---xx   flac  0.5910  gd1990-03-25d2t02.flac
     7:14.66       76712876 B   ---   --   ---xx   flac  0.5711  gd1990-03-25d2t03.flac
     7:26.71       78841436 B   ---   --   ---xx   flac  0.6061  gd1990-03-25d2t04.flac
     5:40.20       60023084 B   ---   --   ---xx   flac  0.5700  gd1990-03-25d2t05.flac
     8:06.27       85793948 B   ---   --   ---xx   flac  0.5370  gd1990-03-25d2t06.flac
    10:15.67      108643628 B   ---   --   ---xx   flac  0.5373  gd1990-03-25d3t01.flac
     4:10.43       44201180 B   ---   --   ---xx   flac  0.5438  gd1990-03-25d3t02.flac
     6:47.66       71950076 B   ---   --   ---xx   flac  0.5904  gd1990-03-25d3t03.flac
     9:10.36       97104716 B   ---   --   ---xx   flac  0.5525  gd1990-03-25d3t04.flac
     6:01.17       63720428 B   ---   --   ---xx   flac  0.5820  gd1990-03-25d3t05.flac
     0:32.07        5661308 B   ---   --   ---xx   flac  0.5250  gd1990-03-25d3t06.flac
     4:36.04       48695852 B   ---   --   ---xx   flac  0.5755  gd1990-03-25d3t07.flac
   152:42.26     1616238920 B                            0.5735  (22 files)

No errors occured.
Show Checksums
ffp
gd1990-03-25d1t01.flac:8193314510043109bbbbe64e99e9315f
gd1990-03-25d1t02.flac:13f965b50c9f11801fe5930a3ebc7cdf
gd1990-03-25d1t03.flac:402c8ba1c24e9d022cba585e45cdaff4
gd1990-03-25d1t04.flac:06e42addc93ceec5700b4c06a5c8d49b
gd1990-03-25d1t05.flac:0bb96cd175873792f0582ac436ca70fc
gd1990-03-25d1t06.flac:91c19d9f6b4ea38ebb81dd9600310e7a
gd1990-03-25d1t07.flac:8e30ef3b7a4077108d6e36741b721408
gd1990-03-25d1t08.flac:72426fc6218f63532fd2bc04949e4162
gd1990-03-25d1t09.flac:a103c25bcaa45f77b34e169f58144e10
gd1990-03-25d2t01.flac:1d47ee577d154ec67d03121724734f50
gd1990-03-25d2t02.flac:972a9059492c3d1bf54bcb0d9326fa4f
gd1990-03-25d2t03.flac:ba93d46699ce975d63bb3cb11ae1cba1
gd1990-03-25d2t04.flac:f611ccbf5d9cd5622e5e510ea50319c1
gd1990-03-25d2t05.flac:07fc27e8585881fabe429c2c5e00f796
gd1990-03-25d2t06.flac:25d8d1844b65945127fc0734b5bce572
gd1990-03-25d3t01.flac:d8fb6258e63ac85e71139729c59cb188
gd1990-03-25d3t02.flac:bbf0f7b93d907eda419af8d97851cfea
gd1990-03-25d3t03.flac:ba0c5fd3bfd08a3355bc75654eaac2ba
gd1990-03-25d3t04.flac:0813dcf1950916bc5af000acd697894f
gd1990-03-25d3t05.flac:9065c8c9ffba1269695009897d3976f3
gd1990-03-25d3t06.flac:f06df8d94b02cb13b1b4af5675c94d36
gd1990-03-25d3t07.flac:e877ae5af4af1ba2db868085a1a76b7f
flac-md5
f317227af01a14d4a88f6a06473f00c0 *gd1990-03-25d1t01.flac
aaf8508fdd22085717426153244404b1 *gd1990-03-25d1t02.flac
b4ad9027f3b8594b92e6074f7bcfa734 *gd1990-03-25d1t03.flac
f7c07e887221cd359b3f9490c122c6d0 *gd1990-03-25d1t04.flac
3024c388f4f67192dcf73238f6c42a87 *gd1990-03-25d1t05.flac
8d35d1ca895b995092ac0408e5b76157 *gd1990-03-25d1t06.flac
84827002173158fd3c666408f27efcd8 *gd1990-03-25d1t07.flac
dfacf38121251804adbb821927228644 *gd1990-03-25d1t08.flac
51c7bdba6b9eea05fc47576b76c366c0 *gd1990-03-25d1t09.flac
f6fafbaa967d1d06113bbc860eb6f6be *gd1990-03-25d2t01.flac
ace27626ad434846454dbfb2b6c75bc3 *gd1990-03-25d2t02.flac
14c2550743355fc2bab82937a142d3c9 *gd1990-03-25d2t03.flac
2bf5aaf613aa00c6a66413ab18d1158e *gd1990-03-25d2t04.flac
93bc503aba1c454581ec05b2504a332c *gd1990-03-25d2t05.flac
1de032a83078dbc94399207dacc710d7 *gd1990-03-25d2t06.flac
d34bf3e6a35a08cc1c45981a9dc353f8 *gd1990-03-25d3t01.flac
6dd7526646da13bc97d41eb78fb58f91 *gd1990-03-25d3t02.flac
078c5b458b8a9607d437198134ff2692 *gd1990-03-25d3t03.flac
a3bffb1c8ed91adcf26c439314576d2f *gd1990-03-25d3t04.flac
1f59d0303e0cad258d27081490b8941a *gd1990-03-25d3t05.flac
93e660d71de478025c20c0d0f66a2eda *gd1990-03-25d3t06.flac
9d18fee185aad68001eafa8ecd31eb59 *gd1990-03-25d3t07.flac

Comments
Add Comment
Other Sources (comments)
SBD cass master > DAT > SHN... (0) SBD>24 Track... (1) 24 track SBD MR> Healy 2... (3) FOB Schoeps CMC4/MK21> Oade... (0) flac16; SBD -> Dat... (0) flac16; Sennheiser... (0) flac24; Recorded By... (0) flac16; Recorded By... (0) flac16; Recorded By... (0) flac24; Recorded By... (0) flac16; 2 Source... (0) flac16/48kHz;... (0) flac16; Source: AKG... (0) flac16; Recording... (0) flac16; Recording... (0) flac16/48kHz; Master... (0) flac16/48kHz; Ted... (0)
Date User Comment