Browse Collections Artists Sources   Search Dates

Add Show    List Management    Help


Grateful Dead 05/10/80
Hartford Civic Center, Hartford, CT
Comments Add Comment    Source Collectors    Add to Collection    Add to Want List    History
Source # 91938 Other Sources
Entered by Matt Vernon
Checksums ffp , flac-md5
Disc Counts 2 / 2
Media Size
Date Circulated
Date Added
05/21/2008
05/20/2008
Source Summary flac16; Set 2 only, Recording Info: SBD -> Cassette Master -> Dat -> Sound Forge -> WAV; Transfer Info: WAV -> Adobe Audition v1.5 -> Samplitude Professional v10.02 -> FLAC 
  Archive
Source Information - Download Text | Download Zip
Grateful Dead - May 10, 1980
Civic Center - Hartford, CT
**Set 2 SBD**

Recording Info:
SBD -> Cassette Master -> Dat -> Sound Forge -> WAV

Transfer Info:
WAV -> Adobe Audition v1.5 -> Samplitude Professional v10.02 -> FLAC
(2 Discs Audio / 2 Disc FLAC)

Patch Info:
(3) Nakamichi 300 -> Cassette Master -> CD (shnid=83063) supplies:
He's Gone (0:03 - 0:12)
Not Fade Away (7:38 - end of show)

Notes:
-- Disc change is seamless
-- Thanks to Joe B. Jones for his help with the pitch correction

Set 2:
d2t01 - Tuning
d2t02 - China Cat Sunflower ->
d2t03 - I Know You Rider
d2t04 - Feel Like A Stranger ->
d2t05 - Comes A Time ->
d2t06 - Estimated Prophet ->
d2t07 - He's Gone ->
d2t08 - Uncle John's Band ->
d3t01 - Drums ->
d3t02 - Space ->
d3t03 - Not Fade Away ->
d3t04 - Sugar Magnolia

Encore:
d3t05 - Alabama Getaway ->
d3t06 - One More Saturday Night


SHNTOOL OUTPUT:
    length     expanded size   cdr  WAVE problems filename
     0:56.29        9946652    ---   --   -----   gd80-05-10d2t01.wav
     6:38.07       70223708    ---   --   -----   gd80-05-10d2t02.wav
    10:23.14      109930172    ---   --   -----   gd80-05-10d2t03.wav
     7:42.29       81565052    ---   --   -----   gd80-05-10d2t04.wav
     8:42.06       92094956    ---   --   -----   gd80-05-10d2t05.wav
    10:39.03      112726700    ---   --   -----   gd80-05-10d2t06.wav
    14:43.55      155890604    ---   --   -----   gd80-05-10d2t07.wav
    11:25.25      120892844    ---   --   -----   gd80-05-10d2t08.wav
    10:15.22      108537788    ---   --   -----   gd80-05-10d3t01.wav
     1:16.14       13439372    ---   --   -----   gd80-05-10d3t02.wav
     8:33.70       90657884    ---   --   -----   gd80-05-10d3t03.wav
     9:10.74       97194092    ---   --   -----   gd80-05-10d3t04.wav
     4:23.37       46480268    ---   --   -----   gd80-05-10d3t05.wav
     4:59.71       52910636    ---   --   -----   gd80-05-10d3t06.wav
   109:50.06     1162490728 B                     (totals for 14 files)
Show Checksums
ffp
gd80-05-10d2t01.flac:ce8288451c23563d229389696e84aa61
gd80-05-10d2t02.flac:94ded032d2b73d8eda391229a1c2dd1d
gd80-05-10d2t03.flac:ae5689d047fc3ddc97ffe1a19d379c44
gd80-05-10d2t04.flac:fff0aed395bfda35694fda952320a1ae
gd80-05-10d2t05.flac:a0f952eb0762b95a1ee8de8a93ff59d4
gd80-05-10d2t06.flac:5b3a478bb111d426526791aed17a9a3c
gd80-05-10d2t07.flac:7f261d8dba109577546cdf2839f755cc
gd80-05-10d2t08.flac:b82d99d947e1db1f2f80f606d5600d97
gd80-05-10d3t01.flac:d31a157d2891cf7ec7587ebbc3d20d50
gd80-05-10d3t02.flac:174d2f5527756b357e0a3f599ce5c103
gd80-05-10d3t03.flac:dc11186e6b1bceb17532206065fbe763
gd80-05-10d3t04.flac:c5f640d19850fe1e2b1d2ef9f0c39a35
gd80-05-10d3t05.flac:00e4d1a0ab957befd741d4e1eb02a79f
gd80-05-10d3t06.flac:bc2d87c5540a8f0a0dd0d0e4c76676ce
flac-md5
82202ff2ffcd0ccc98353ead4de97284 *gd80-05-10d2t01.flac
67b3dcdfe21fce53d0f888019dc6e9d8 *gd80-05-10d2t02.flac
a3582b0a16a56f70a837541b8fb736f6 *gd80-05-10d2t03.flac
3b2b94cb19371dad8534ce4889414949 *gd80-05-10d2t04.flac
f0f979e345bb6f83e4867191cb1b2166 *gd80-05-10d2t05.flac
25d3baa807f0edd12cfee1441deee3ec *gd80-05-10d2t06.flac
0e30feb02f958a80036f39d4acba9b0e *gd80-05-10d2t07.flac
772aada792fb6194b7023b62e03751c1 *gd80-05-10d2t08.flac
79e752ede58237efda8287fbf40f747a *gd80-05-10d3t01.flac
681df70935e401345ca93d9896c33449 *gd80-05-10d3t02.flac
0368f2974e2c6716833b482921e2cd7a *gd80-05-10d3t03.flac
2bf3785d1207f61272c290a53bd0c99e *gd80-05-10d3t04.flac
283d25b56182ac061e85efcc6c7b47cd *gd80-05-10d3t05.flac
7daa55580ef41fb18e45eba5dd865ed5 *gd80-05-10d3t06.flac

Comments
Add Comment
Other Sources (comments)
Recording by Steve Rolfe:... (4) Recording by Steve Rolfe:... (3) flac16; Recording by... (1) flac16; Recorded by... (0) flac16; Source:(FOB)... (0) flac16; Recording... (0) flac24; AUD: 2x... (2) flac16; AUD: 2x... (2) flac16; 2 X Nak... (0) flac24; 2 X Nak... (0) flac24; Cassette... (0) flac16/48kHz;... (0)
Date User Comment