Browse Collections Artists Sources   Search Dates

Add Show    List Management    Help


Grateful Dead 05/08/81
Nassau Coliseum, Uniondale, NY
Comments Add Comment    Source Collectors    Add to Collection    Add to Want List    History
Source # 92002 Other Sources
Entered by Steve Swartz
Checksums ffp , flac-md5
Disc Counts 2 / 3
Media Size
Date Circulated
Date Added
05/25/2008
05/25/2008
Source Summary flac16; MATRIX MIX: SBD/2 AUD (About 60%/40%) 
  Archive
Source Information - Download Text | Download Zip
Grateful Dead
Nassau Veterans Memorial Coliseum
Uniondale , NY
Friday, May 8, 1981


MATRIX MIX: SBD/2 AUD (About 60%/40%)

---------------------------------------------------------------
SBD:

Recording Info:
SBD -> Master Cassette -> Dat (44.1k)

Transfer Info:
Dat (Sony R500) -> SEK'D Prodif Plus -> Samplitude v7.02 Professional -> SHN
(3 Discs Audio / 2 Discs SHN)

Transfered and Patched By Charlie Miller
[email protected]
4/7/04

---------------------------------------------------------------
AUD 1:

Source: NAK-700's > SONY TC-D5M  Dolby On taped by Barry Glassberg FOB
Lineage: AUDMC > Tascam 122MKIII > Tascam DA-40 > DAT by Mark Cohen
DAT > CD by John Steinthal: Sony PCM-R500 > Dell Precision (via delta dio2496 card) >
Soundforge (normalize/cross fades) > CDWAV > Prassi Primo CD plus: (layout tracks and burn) > CD
CD > EAC(secure) > mkwact > SHN(seekable) by [email protected]

Recorded by Barry Glassberg

AUD 2:

FOB Senn 421's>Sony D5>MC>DAT>CDR

Recorded by Jim Wise

----------------------------------------------------------------

Matrix by Hunter Seamons using Final Cut Pro (SHN>AIFF>Final Cut>WAV>FLAC)
May 25, 2008


Set 1:
d1t01 - Tuning
d1t02 - Jack Straw
d1t03 - Peggy-O
d1t04 - Me And My Uncle ->
d1t05 - Big River
d1t06 - Loser
d1t07 - C C Rider
d1t08 - Althea ->
d1t09 - Let It Grow ->
d1t10 - Don't Ease Me In

Set 2:
d2t01 - Shakedown Street ->
d2t02 - Samson And Delilah
d2t03 - Terrapin Station ->
d2t04 - Playing In The Band ->
d2t05 - Drums ->
d3t01 - Space** ->
d3t02 - Not Fade Away ->
d3t03 - Stella Blue ->
d3t04 - Sugar Magnolia

Encore:
d3t05 - U.S. Blues**


Show Notes:
-- **with Ken Kesey on harmonica
-- Seamless transition between discs 2 and 3.
-- This second set is incredible!!!

Matrix Notes:

1)The the right channel of the Glassberg AUD was increased 4 dB. The audio channels were uneven.

2)The Glassberg source (the preferred source for this matrix) appears to contain 2 AUD sources in it. Towards the end of Drums there is a cut in the AUD; after the cut, a strikingly different sounding AUD is patched into the source. The quality of this “other” source was pretty bad, with some bass overload. Very luckily, Jim Wise's AUD was available and sounds just as good as Glassberg's, so I used it from that section in Drums onward to the end of the show. The audience happens to be a little more “defined” in Wise's source, but I ultimately prefer Glassberg's AUD for its richer tonal quality. So, there is a “complementary” shift in sound during Drums, but it sounds pretty much the same and is all good.

3)There were cuts in the AUD and SBD. Significantly, there were cuts in the SBD during Jack Straw (first few seconds), Shakedown Street (first 2:08 of track), Playing in the Band (8:33-9:41), and Sugar Magnolia (last few seconds of song).

4)There were some wacky fluctuations in the SBD mix during the earlier portion of Set 1. There will be moments of extra hiss, changes in vocal and guitar sound, sounds levels, etc. Some of it may be some exciting pedal work by Garcia, but this has not been verified.

5)Enjoy at high volume.



length     expanded size    cdr  WAVE problems  fmt   ratio  filename
     2:03.31       21770156 B   ---   --   ---xx  gd81-05-08d1t01.flac
     6:09.58       65228060 B   ---   --   ---xx  gd81-05-08d1t02.flac
     7:40.65       81296924 B   ---   --   ---xx  gd81-05-08d1t03.flac
     2:58.50       31516844 B   ---   --   ---xx  gd81-05-08d1t04.flac
     6:49.14       72180572 B   ---   --   ---xx  gd81-05-08d1t05.flac
     8:14.67       87299228 B   ---   --   ---xx  gd81-05-08d1t06.flac
     8:21.02       88381148 B   ---   --   ---xx  gd81-05-08d1t07.flac
     8:39.02       91556348 B   ---   --   ---xx  gd81-05-08d1t08.flac
    10:22.21      109770236 B   ---   --   ---xx  gd81-05-08d1t09.flac
     3:16.53       34699100 B   ---   --   ---xx  gd81-05-08d1t10.flac
    16:44.40      177199724 B   ---   --   ---xx  gd81-05-08d2t01.flac
     7:31.26       79617596 B   ---   --   ---xx  gd81-05-08d2t02.flac
    12:42.63      134565020 B   ---   --   ---xx  gd81-05-08d2t03.flac
    16:36.07      175710908 B   ---   --   ---xx  gd81-05-08d2t04.flac
     7:31.01       79558796 B   ---   --   ---xx  gd81-05-08d2t05.flac
     6:30.02       68800748 B   ---   --   ---xx  gd81-05-08d3t01.flac
     9:24.32       99564908 B   ---   --   ---xx  gd81-05-08d3t02.flac
     9:14.44       97829132 B   ---   --   ---xx  gd81-05-08d3t03.flac
     9:04.56       96093356 B   ---   --   ---xx  gd81-05-08d3t04.flac
     6:03.03       64040300 B   ---   --   ---xx  gd81-05-08d3t05.flac
   165:58.37     1756679104 B                            0.5553  (20 files)
Show Checksums
ffp
gd81-05-08d1t01.flac:62d72b6691eaa12f532760f8e4ff2254
gd81-05-08d1t02.flac:6422203854ef08c6cb2b3faf0326f040
gd81-05-08d1t03.flac:908b5b7cedbd8c6cd7d7ae39964ecbf5
gd81-05-08d1t04.flac:069de1533db4e983155f36682d4aeded
gd81-05-08d1t05.flac:3faaff6e7c70a51d01b5f188c5ed3a1c
gd81-05-08d1t06.flac:f84a759db57413d48f7dfebd3edc733a
gd81-05-08d1t07.flac:f65345b7d5d01f854334047daac0b5d4
gd81-05-08d1t08.flac:7e936611e6892be09ffd8d4ddb62712c
gd81-05-08d1t09.flac:ddf24facdc3354d8226580ca8361d8b0
gd81-05-08d1t10.flac:380eba6412a4d99a7a6499f53c22747e
gd81-05-08d2t01.flac:cf4dd50bac37e06613414e25a42fe032
gd81-05-08d2t02.flac:4e91beb42935eaa6dffbdb60fed8ea4d
gd81-05-08d2t03.flac:abde643212c967b562520875d669872d
gd81-05-08d2t04.flac:76717bd5c996e617cf0547a896296ec4
gd81-05-08d2t05.flac:e3957833775205a954135a6ef6d20d35
gd81-05-08d3t01.flac:5e87303ebbf745ae5bfa4bcfad195bdf
gd81-05-08d3t02.flac:d6fe1a4e706c3d0b0e744213fcd56c88
gd81-05-08d3t03.flac:515462982b01361905cdb96790822211
gd81-05-08d3t04.flac:7de0dd43e227d489a66126d79889b161
gd81-05-08d3t05.flac:fe7915056706380769b4c280704a93f2
flac-md5
8d4d9bd90b1ff4bd38b14199529659ba *gd81-05-08d1t01.flac
ad62cbbd91c3c1f01b0050be79cd515c *gd81-05-08d1t02.flac
35dde262111a42520af101b6c9c928bd *gd81-05-08d1t03.flac
15d04ca7617e814121129a0d188af580 *gd81-05-08d1t04.flac
412811f1864073e41509c96ab2b1f625 *gd81-05-08d1t05.flac
1bdfb192220a04b4a07726aa52ff2ed6 *gd81-05-08d1t06.flac
d5306a3bef4846cbd03ad16f52ce5348 *gd81-05-08d1t07.flac
a44da083920f72cbf0bbcb078905b701 *gd81-05-08d1t08.flac
d3b68c5433b044e315d39726751dfc7e *gd81-05-08d1t09.flac
0c72ed54df55b407f066404dc017b2f0 *gd81-05-08d1t10.flac
7ba17b045a563ec580f4b178b8d1f320 *gd81-05-08d2t01.flac
cbb78c73f58dea09dbeb092109ff4064 *gd81-05-08d2t02.flac
06dd928b742a37df6120d4c494f5fec3 *gd81-05-08d2t03.flac
86dfdf7d27c6d3f6ce4d5e52e6ea85a4 *gd81-05-08d2t04.flac
f8b03b66f97f1cd6d9362593dc73242e *gd81-05-08d2t05.flac
176649b77aba93a83e43b416a0ff3a27 *gd81-05-08d3t01.flac
c669cf492c1b8a171338a94830ad78b1 *gd81-05-08d3t02.flac
9654d1ddab5648160cd7135e6baa075b *gd81-05-08d3t03.flac
b2f3f6183dc6c0446c9aa3e069af4f01 *gd81-05-08d3t04.flac
69eaa637a449c888f6897980b1a622ad *gd81-05-08d3t05.flac

Comments
Add Comment
Other Sources (comments)
Recording by Jim Wise: FOB... (1) Recording by Barry... (4) SBD> Master Cassette> Dat... (0) flac16; Recording... (0) flac24; Cassette... (0) flac24; source: aud... (0) flac16; source: aud... (0) flac16; Set 2 AUD:... (0) flac24; Set 2 AUD:... (0) flac16; Source Info:... (0) flac24; Source Info:... (0)
Date User Comment