Browse Collections Artists Sources   Search Dates

Add Show    List Management    Help


Ratdog 06/01/08
Hunter Mountain Ski Resort, Hunter, NY
Comments Add Comment    Source Collectors    Add to Collection    Add to Want List    History
Source # 92113 Other Sources
Entered by ziko
Checksums ffp
Disc Counts 2 / 2
Media Size
Date Circulated
Date Added
06/03/2008
06/04/2008
Source Summary flac16 Source: Schoeps CCM4V'S(din)>Lunatec V2>Sound Devices 722 (24/48)-location: FOB/LOC/DFC/KFC/ZFC/AARP 12' High; DSP: Sound Devices 722>Sound Forge 7.0>CD Wave>flac(16) Recorded By: The Z-Man  
Source Information - Download Text | Download Zip
Ratdog
Mountain Jam
Hunter Mountain
Hunter, New York
6/1/2008

Source: Schoeps CCM4V'S(din)>Lunatec V2>Sound Devices 722 (24/48)
location: FOB/LOC/DFC/KFC/ZFC/AARP 12' High
DSP: Sound Devices 722>Sound Forge 7.0>CD Wave>flac(16)
Recorded By: The Z-Man
Seeded By: The Z-Man

Disc I 1st Set

01 Intro
02 Jam >
03 Help on the Way >
04 Slipknot >
05 easy Answers
06 *She Belongs to Me
07 Money For Gasoline >
08 #The Loser
09 Loose Lucy >
10 Two Djinn

Disc II 2nd Set

01 @Masters of War
02 @Tuning
03 @Friend of the Devil
04 Mississippi Half-Step >
05 Samson and Delilah >
06 Drum Solo >
07 Jam >
08 Terrapin Station >
09 At a Sighting >
10 Terrapin Station >
11 Sugar Magnolia
Encore:
12 Ripple

* With Levon Helm
# With Warren Haynes
@ Acoustic

ratdog2008-06-01d01t01.flac:edee117d97b21fc22f532ed7168fd0ff
ratdog2008-06-01d01t02.flac:ee00cba7c4f57ecf6e39d80dd5f4ee17
ratdog2008-06-01d01t03.flac:c81e922b3b49fb9918a3f43341960a14
ratdog2008-06-01d01t04.flac:8fdc8908457e8421217dbb21875a045b
ratdog2008-06-01d01t05.flac:324b95f1d00da5602f7c461bb912c726
ratdog2008-06-01d01t06.flac:590e0c87d5e5f684753d27b9a3fbf93a
ratdog2008-06-01d01t07.flac:ff2206d62f4f2abea29f9319127b22d1
ratdog2008-06-01d01t08.flac:b8d7648df06cd75c0ae1a4670d7c9b2b
ratdog2008-06-01d01t09.flac:8889e890a0110cd36644e20ad13a3423
ratdog2008-06-01d01t10.flac:23a2fc921ccdb4189192da9da9d9dfcc
ratdog2008-06-01d02t01.flac:f7afe29d3f41963c347d815d442fd74d
ratdog2008-06-01d02t02.flac:959adc10976617efe6e7a5e514d891f7
ratdog2008-06-01d02t03.flac:f51c5bce194579eac609f87bc4e27c51
ratdog2008-06-01d02t04.flac:da72033ed351a339e461025e8db23133
ratdog2008-06-01d02t05.flac:2c134874945b66efa8b927f9f9b77de4
ratdog2008-06-01d02t06.flac:db04db85b83ac3a7f5ca8c9c3904f6fc
ratdog2008-06-01d02t07.flac:c103fe0fa1daf411410bb704e429031c
ratdog2008-06-01d02t08.flac:189b1ff455e0afa6983e80996bf779fd
ratdog2008-06-01d02t09.flac:e0058a1add70d05c8fed2777a3a9be82
ratdog2008-06-01d02t10.flac:8446059b75573f877d3df3b3aa331248
ratdog2008-06-01d02t11.flac:ce44d9af1fd1889ca7bed96e0f672e06
ratdog2008-06-01d02t12.flac:a984760aa10996701a5249a609122160

  length     expanded size   cdr  WAVE problems filename
     2:54.65       30846524    ---   --   ---xx   ratdog2008-06-01d01t01.flac
     5:32.35       58647164    ---   --   ---xx   ratdog2008-06-01d01t02.flac
     5:51.56       62048156    ---   --   ---xx   ratdog2008-06-01d01t03.flac
     5:53.27       62332748    ---   --   ---xx   ratdog2008-06-01d01t04.flac
    11:46.16      124576076    ---   --   ---xx   ratdog2008-06-01d01t05.flac
     7:31.55       79685804    ---   --   ---xx   ratdog2008-06-01d01t06.flac
     6:49.34       72227612    ---   --   ---xx   ratdog2008-06-01d01t07.flac
    12:27.44      131874332    ---   --   ---xx   ratdog2008-06-01d01t08.flac
     8:32.37       90403868    ---   --   ---xx   ratdog2008-06-01d01t09.flac
    12:27.69      131933132    ---   --   ---xx   ratdog2008-06-01d01t10.flac
     7:20.19       77660732    ---   --   ---xx   ratdog2008-06-01d02t01.flac
     1:08.04       12004652    ---   --   ---xx   ratdog2008-06-01d02t02.flac
     7:01.01       74266796    ---   --   ---xx   ratdog2008-06-01d02t03.flac
     9:58.35      105569564    ---   --   ---xx   ratdog2008-06-01d02t04.flac
     7:08.04       75508652    ---   --   ---xx   ratdog2008-06-01d02t05.flac
     1:07.65       11971724    ---   --   ---xx   ratdog2008-06-01d02t06.flac
     8:00.02       84676748    ---   --   ---xx   ratdog2008-06-01d02t07.flac
    14:24.04      152419052    ---   --   ---xx   ratdog2008-06-01d02t08.flac
     6:47.24       71851292    ---   --   ---xx   ratdog2008-06-01d02t09.flac
     1:40.43       17741180    ---   --   ---xx   ratdog2008-06-01d02t10.flac
     9:32.55      101030204    ---   --   ---xx   ratdog2008-06-01d02t11.flac
     5:48.43       61488380    ---   --   ---xx   ratdog2008-06-01d02t12.flac
   159:44.62     1690764392 B                     (totals for 22 files, 0.4639 overall compression ratio)

Show Checksums
ffp
ratdog2008-06-01d01t01.flac:edee117d97b21fc22f532ed7168fd0ff
ratdog2008-06-01d01t02.flac:ee00cba7c4f57ecf6e39d80dd5f4ee17
ratdog2008-06-01d01t03.flac:c81e922b3b49fb9918a3f43341960a14
ratdog2008-06-01d01t04.flac:8fdc8908457e8421217dbb21875a045b
ratdog2008-06-01d01t05.flac:324b95f1d00da5602f7c461bb912c726
ratdog2008-06-01d01t06.flac:590e0c87d5e5f684753d27b9a3fbf93a
ratdog2008-06-01d01t07.flac:ff2206d62f4f2abea29f9319127b22d1
ratdog2008-06-01d01t08.flac:b8d7648df06cd75c0ae1a4670d7c9b2b
ratdog2008-06-01d01t09.flac:8889e890a0110cd36644e20ad13a3423
ratdog2008-06-01d01t10.flac:23a2fc921ccdb4189192da9da9d9dfcc
ratdog2008-06-01d02t01.flac:f7afe29d3f41963c347d815d442fd74d
ratdog2008-06-01d02t02.flac:959adc10976617efe6e7a5e514d891f7
ratdog2008-06-01d02t03.flac:f51c5bce194579eac609f87bc4e27c51
ratdog2008-06-01d02t04.flac:da72033ed351a339e461025e8db23133
ratdog2008-06-01d02t05.flac:2c134874945b66efa8b927f9f9b77de4
ratdog2008-06-01d02t06.flac:db04db85b83ac3a7f5ca8c9c3904f6fc
ratdog2008-06-01d02t07.flac:c103fe0fa1daf411410bb704e429031c
ratdog2008-06-01d02t08.flac:189b1ff455e0afa6983e80996bf779fd
ratdog2008-06-01d02t09.flac:e0058a1add70d05c8fed2777a3a9be82
ratdog2008-06-01d02t10.flac:8446059b75573f877d3df3b3aa331248
ratdog2008-06-01d02t11.flac:ce44d9af1fd1889ca7bed96e0f672e06
ratdog2008-06-01d02t12.flac:a984760aa10996701a5249a609122160

Comments
Add Comment
Other Sources (comments)
Source 1: Senn ME-66 PAS >... (0) flac16 Neumann... (0) flac16Source 1:... (0)
Date User Comment