Browse Collections Artists Sources   Search Dates

Add Show    List Management    Help


New Riders of the Purple Sage 09/18/70
Fillmore East, New York, NY
Comments Add Comment    Source Collectors    Add to Collection    Add to Want List    History
Source # 92149 Other Sources
Entered by Scott
Checksums ffp
Disc Counts 1 / 1
Media Size
Date Circulated
Date Added
06/06/2008
06/06/2008
Source Summary Matrix sources 1) SBDMR > Alesis Masterlink > CDR > EAC > WAV > FLAC 10" 1/2 track SBDMR Scotch reels played back on a Revox 1/2 track A700 > Alesis Masterlink 9600 EAC > Flac transfer by Noah Weiner - October, 2006 2) AUD> MC > R > C > CD > EAC > SHN Jack Toner recording 
Source Information - Download Text | Download Zip
New Riders Of The purple Sage
Fillmore East.
New York, NY
09/18/1970

Matrix sources
  
1) SBDMR > Alesis Masterlink > CDR > EAC > WAV > FLAC
    10" 1/2 track SBDMR Scotch reels played back on a
    Revox 1/2 track A700 > Alesis Masterlink 9600
    EAC > Flac transfer by Noah Weiner - October, 2006

2) AUD> MC > R > C > CD > EAC > SHN
     Jack Toner recording


01   Honky Tonk Women
02   tuning
03   Workingman's Blues
04   tuning
05   Superman
06   I'm In Love With You
07   tuning
08   Dirty Business
09   Truck Drivin' Man
10   tuning
11   Last Lonely Eagle
12   Fair Chance To Know
13   tuning
14   Glendale Train
15   tuning
16   Louisiana Lady
17   tuning
18   The Race Is On*
19   tuning
20   Mama Tried*
21   Sawmill*
22   tuning
23   The Weight


John Dawson - rhythm guitar, vocals
David Nelson - lead guitar, vocals
David Torbert - bass, vocals
Jerry Garcia - pedal steel guitar, vocals
Mickey Hart - drums

* with Bob Weir - acoustic guitar, vocals



Notes:

- I cleaned up the aud as much as I could then eq'd it to give it a brighter sound, it was originally very muddy sounding
- the aud was paused between tracks and was missing most of the tuning, these have been patched in from the sbd
- the sbd had the start of the first track and the end of the last track missing, these have been patched in from the sbd
- the aud had the whole of "Truck Drivin' Man"missing, this has been patched in from the sbd
- there were a couple of other small segments of music missing from the aud, which have been patched in from the
   sbd


Comments:

There's no doubt that this matrix has got some rough edges but when it works, it works :-)    


Matrixed by
SIRMick
June 2008



shntool output:

    length     expanded size   cdr  WAVE problems filename
     5:03.01       53451596    ---   --   ---xx   nrps1970-09-18t01.flac
     1:38.29       17355452    ---   --   ---xx   nrps1970-09-18t02.flac
     4:04.44       43145132    ---   --   ---xx   nrps1970-09-18t03.flac
     1:35.46       16866236    ---   --   ---xx   nrps1970-09-18t04.flac
     3:29.67       37025228    ---   --   ---xx   nrps1970-09-18t05.flac
     4:25.54       46873052    ---   --   ---xx   nrps1970-09-18t06.flac
     1:06.14       11675372    ---   --   ---xx   nrps1970-09-18t07.flac
    10:11.46      107888636    ---   --   ---xx   nrps1970-09-18t08.flac
     3:53.38       41190620    ---   --   ---xx   nrps1970-09-18t09.flac
     0:54.22        9577388    ---   --   ---xx   nrps1970-09-18t10.flac
     6:49.62       72293468    ---   --   ---xx   nrps1970-09-18t11.flac
     4:06.32       43469708    ---   --   ---xx   nrps1970-09-18t12.flac
     0:43.65        7738124    ---   --   ---xx   nrps1970-09-18t13.flac
     5:27.06       57696956    ---   --   ---xx   nrps1970-09-18t14.flac
     1:08.61       12138716    ---   --   ---xx   nrps1970-09-18t15.flac
     3:51.32       40823708    ---   --   ---xx   nrps1970-09-18t16.flac
     2:03.66       21852476    ---   --   ---xx   nrps1970-09-18t17.flac
     2:50.21       30037436    ---   --   ---xx   nrps1970-09-18t18.flac
     0:53.27        9412748    ---   --   ---xx   nrps1970-09-18t19.flac
     3:09.05       33351404    ---   --   ---xx   nrps1970-09-18t20.flac
     3:52.74       41098892    ---   --   ---xx   nrps1970-09-18t21.flac
     1:41.49       17931692    ---   --   ---xx   nrps1970-09-18t22.flac
     6:53.28       72919100    ---   --   ---xx   nrps1970-09-18t23.flac
    79:54.64      845813140 B                     (totals for 23 files, 0.5289 overall compression ratio)

Show Checksums
ffp
nrps1970-09-18t01.flac:c93ab35154ef87fff31626eb820c3b32
nrps1970-09-18t02.flac:34c4ac25797107c930e7a7eebc90aba5
nrps1970-09-18t03.flac:66b77c953b641d149084519c2d1f7ada
nrps1970-09-18t04.flac:6890b02bb9475862ea7b624d55a2c9ae
nrps1970-09-18t05.flac:468551350feced6955daa6a087995d4c
nrps1970-09-18t06.flac:902857d1b3fe0e3a4e1f1a0e7a144d69
nrps1970-09-18t07.flac:935d67f5e2727439bcdff30cde632470
nrps1970-09-18t08.flac:a3e834b9318a2717b5abc405666b3caf
nrps1970-09-18t09.flac:9a291a1059198a953c994227e3e76be2
nrps1970-09-18t10.flac:0da654c2bd824e29a3ec04a2e40722ee
nrps1970-09-18t11.flac:bcbfd6c8d45d7c60f8440d10dd921884
nrps1970-09-18t12.flac:5a0d140e4daa000099ba90879cd59d57
nrps1970-09-18t13.flac:531c9cd3c44ac81f7c359a7edb15f330
nrps1970-09-18t14.flac:0e1fd4bced464791f0808bc6e6620b76
nrps1970-09-18t15.flac:2fa9b3a298f328196b3a0d44242a68f4
nrps1970-09-18t16.flac:1b4302bf8ed2982aae1e10c5af6a4604
nrps1970-09-18t17.flac:e6548ceeedc01bb1071642a1b7ce618f
nrps1970-09-18t18.flac:e8c5c7788e4c131ca2abecc708019719
nrps1970-09-18t19.flac:c643c89e3502ddda418b9eaf20c9dcc6
nrps1970-09-18t20.flac:8fd513ca1d8a7a8b6892bf4a7acbae69
nrps1970-09-18t21.flac:a85a0cb8a7d4c02891f8093f6d917305
nrps1970-09-18t22.flac:bf4b02aa2636d6a533efe0c82f1bede7
nrps1970-09-18t23.flac:e99ee233155401bfa366477cd90e03b6

Comments
Add Comment
Other Sources (comments)
SBDMR > Alesis Masterlink >... (0) Source: SBD -> Master Reel... (0)
Date User Comment