Browse Collections Artists Sources   Search Dates

Add Show    List Management    Help


Grateful Dead 10/02/80
Warfield Theater, San Francisco, CA
Comments Add Comment    Source Collectors    Add to Collection    Add to Want List    History
Source # 92204 Other Sources
Entered by Matt Vernon
Checksums ffp , flac-md5
Disc Counts 1 / 1
Media Size
Date Circulated
Date Added
06/09/2008
06/09/2008
Source Summary flac16; Acoustic Set, Matrix sources: a) (shnid 8039) sbd > mr > cass > dat > cdr > eac > shn and b) (shnid 89111) Master Cassette > Nakamichi 700s > Sony TC D-5 > Teac Reel > Transfer to PC tracked & burned to CD Location: FOB either on the floor or 1st row balcony CD Extraction with EAC > TLH > FLAC level 8 Matrix by SIRMick June 2008 
  Archive
Source Information - Download Text | Download Zip
Grateful Dead
Warfeild Theatre
San Francisco, CA
10/02/80

Matrix sources:

a) (shnid 8039) sbd > mr > cass > dat > cdr > eac > shn
      Shn conversion done by Tim Wiley 2/29/02
      thanks to Paul B. for the cds

b) (shnid 89111) Master Cassette > Nakamichi 700s > Sony TC D-5 >
     Teac Reel > Transfer to PC tracked & burned to CD
     Location: FOB either on the floor or 1st row balcony
     CD Extraction with EAC > TLH > FLAC level 8
     Recorded and archived by Ron Ellner, the master cassettes were stolen
     Transfer: Reels to PC by Peter Mandell
     CD Extraction and seeded by Bill Koucky
     Green Mountain Bros. December 2007

Acoustic set

01   Dark Hollow
02   Iko Iko
03   crowd/tuning
04   The Race is On
05   To Lay Me Down
06   Cassidy
07   Jack A Roe
08   On The Road Again
09   Bird Song >
10   Ripple

Notes:

There was some tuning/crowd missing from both sources.  These have been patched from the opposite source as appropriate


Matrix by
SIRMick
June 2008



shntool output:

    length     expanded size   cdr  WAVE problems filename
     4:11.70       44441084    ---   --   ---xx   gd1980-10-02d1t01.flac
     3:43.20       39384284    ---   --   ---xx   gd1980-10-02d1t02.flac
     1:33.27       16468748    ---   --   ---xx   gd1980-10-02d1t03.flac
     3:41.24       39040892    ---   --   ---xx   gd1980-10-02d1t04.flac
     9:42.12      102693068    ---   --   ---xx   gd1980-10-02d1t05.flac
     5:22.41       56897276    ---   --   ---xx   gd1980-10-02d1t06.flac
     4:34.66       48488876    ---   --   ---xx   gd1980-10-02d1t07.flac
     3:31.08       37239260    ---   --   ---xx   gd1980-10-02d1t08.flac
     7:18.25       77322044    ---   --   ---xx   gd1980-10-02d1t09.flac
     4:38.36       49123916    ---   --   ---xx   gd1980-10-02d1t10.flac
    48:17.29      511099448 B                     (totals for 10 files, 0.5640 overall compression ratio)
Show Checksums
ffp
gd1980-10-02d1t01.flac:9cbe8c10dbb8f5ab0a8d6d7e22b4bd36
gd1980-10-02d1t02.flac:391f235874594e8659bd0eecb8aa8739
gd1980-10-02d1t03.flac:b8923b84aa458532a571d3e4b2319c29
gd1980-10-02d1t04.flac:7bc9a6e33aaf89e165969bf5529aaf0c
gd1980-10-02d1t05.flac:82cbf2c70d870095c220f9fc622f0e4f
gd1980-10-02d1t06.flac:99888f507ca5623de5d3c1612d714456
gd1980-10-02d1t07.flac:12a6485857d6a0b6282f8f97b3082668
gd1980-10-02d1t08.flac:d6032462281a1f3a26209831b6c53e02
gd1980-10-02d1t09.flac:a3c0cdaedff832a9d29eefacde408ebe
gd1980-10-02d1t10.flac:ea4a258710012744f8231ded15029f37
flac-md5
0cfa63eff83a90de6dfbb3bc2b6257cb *gd1980-10-02d1t01.flac
32fb90d0083c9aacd084414c1a49878c *gd1980-10-02d1t02.flac
6452878264f04e9fe3bdec51ab585558 *gd1980-10-02d1t03.flac
7fdee2243d68eae8c2774f60c78ae484 *gd1980-10-02d1t04.flac
97c0fb26cb30acf89d7dc862b92fdd6a *gd1980-10-02d1t05.flac
61b5c127d454f623364b1854154a7134 *gd1980-10-02d1t06.flac
f70d2c83df53b9a48b3c7a2556f3e22e *gd1980-10-02d1t07.flac
19cbc891a34a9e6b2a33c758bbe73a70 *gd1980-10-02d1t08.flac
2475f8f53d536ee42b007b479ce18ad0 *gd1980-10-02d1t09.flac
fcc2089afaac8e80c7214bd982014b40 *gd1980-10-02d1t10.flac

Comments
Add Comment
Other Sources (comments)
set 3; SBD-> Master... (2) Acoustic set; SBD> MR>... (2) acoustic and electric sets;... (0) flac16; Recording by... (0) flac16; Acoustic Set... (0) flac16; Recording... (0) flac16; SBD > ? >... (0) flac24; Partial Show... (0) flac16; Partial Show... (0)
Date User Comment
06/14/2008 lscott Jack-a-Roe is not properly synched.