Browse Collections Artists Sources   Search Dates

Add Show    List Management    Help


Grateful Dead 05/30/80
Milwaukee Auditorium, Milwaukee, WI
Comments Add Comment    Source Collectors    Add to Collection    Add to Want List    History
Source # 92217 Other Sources
Entered by Matt Vernon
Checksums flac-md5 , ffp
Disc Counts 2 / 2
Media Size
Date Circulated
Date Added

06/10/2008
Source Summary flac16 Recording Info:Set 1: SBD -> ? -> 5th Gen Cassette Set 2: SBD -> Master Cassette -> Reel -> Dat (48k); Transfer Info:Set 1: Cassette (Nakamichi DR-1) -> Sound Devices 744T (24bit/88.2k) ->Samplitude Professional v10.02 -> Adobe Audition v1.5 -> FLAC/16; Set 2: Dat -> Pro Tools -> Samplitude Professional v10.02 -> FLAC/16; Set 1 Transferred By Charlie Miller; Set 2 Transferred By Rob Eaton; All Mastering By Charlie Miller 
  Archive
Source Information - Download Text | Download Zip
Grateful Dead - May 30, 1980
Milwaukee Auditorium - Milwaukee, WI

Recording Info:
Set 1: SBD -> ? -> 5th Gen Cassette
Set 2: SBD -> Master Cassette -> Reel -> Dat (48k)

Transfer Info:
Set 1: Cassette (Nakamichi DR-1) -> Sound Devices 744T (24bit/88.2k) ->
Samplitude Professional v10.02 -> Adobe Audition v1.5 ->  FLAC/16

Set 2: Dat -> Pro Tools -> Samplitude Professional v10.02 -> FLAC/16
(2 Discs Audio / 2 Discs FLAC)

Set 1 Transferred By Charlie Miller
Set 2 Transferred By Rob Eaton
All Mastering By Charlie Miller
June 10, 2008

Patch Info:
Unknown Mics -> Cassette Master -> Cassette -> Dat -> CD (shnid=14837) supplies:
Jack Straw (0:00 - 1:41)
Passenger (5:09 - end of track)
Easy To Love You (0:00 - 0:05)
Not Fade Away (0:47 - 0:58)
Alabama Getaway (4:17 - end of track)

Notes:
-- Thanks to Matt Smith for the 1st Set cassette
-- Thanks to Rob Eaton for transferring his 2nd Set Dat for me
-- Thanks to Joe B. Jones for his help with the Set 1 pitch correction
-- Set 2 is the same as shnid=91932

Set 1:
d1t01 - Jack Straw ->
d1t02 - Franklin's Tower
d1t03 - Me & My Uncle ->
d1t04 - Big River
d1t05 - Friend Of The Devil
d1t06 - Passenger
d1t07 - Easy To Love You
d1t08 - Althea
d1t09 - The Music Never Stopped

Set 2:
d2t01 - Scarlet Begonias ->
d2t02 - Fire On The Mountain
d2t03 - Playing In The Band ->
d2t04 - Drums ->
d2t05 - Space ->
d2t06 - Not Fade Away ->
d2t07 - Black Peter ->
d2t08 - Goin' Down The Road Feeling Bad ->
d2t09 - Good Lovin'

Encore:
d2t10 - Alabama Getaway


SHNTOOL OUTPUT:
    length     expanded size   cdr  WAVE problems filename
     5:26.72       57675788    ---   --   ---xx   gd80-05-30d1t01.flac
    12:18.61      130326716    ---   --   ---xx   gd80-05-30d1t02.flac
     3:06.34       32890412    ---   --   ---xx   gd80-05-30d1t03.flac
     7:42.18       81539180    ---   --   ---xx   gd80-05-30d1t04.flac
    10:30.14      111164972    ---   --   ---xx   gd80-05-30d1t05.flac
     5:21.15       56659724    ---   --   ---xx   gd80-05-30d1t06.flac
     3:36.63       38250620    ---   --   ---xx   gd80-05-30d1t07.flac
     8:47.14       92995772    ---   --   ---xx   gd80-05-30d1t08.flac
     7:47.07       82395308    ---   --   ---xx   gd80-05-30d1t09.flac
     9:12.19       97417532    ---   --   ---xx   gd80-05-30d2t01.flac
    10:09.55      107557004    ---   --   ---xx   gd80-05-30d2t02.flac
    13:42.25      145059644    ---   --   ---xx   gd80-05-30d2t03.flac
     7:37.38       80704220    ---   --   ---xx   gd80-05-30d2t04.flac
     2:27.08       25949660    ---   --   ---xx   gd80-05-30d2t05.flac
     5:37.10       59470364    ---   --   ---xx   gd80-05-30d2t06.flac
     8:44.01       92435996    ---   --   ---xx   gd80-05-30d2t07.flac
     7:14.55       76687004    ---   --   ---xx   gd80-05-30d2t08.flac
     6:58.41       73831676    ---   --   ---xx   gd80-05-30d2t09.flac
     4:32.00       47980844    ---   --   ---xx   gd80-05-30d2t10.flac
   140:52.25     1490992436 B                     (totals for 19 files)
Show Checksums
flac-md5
672667a75ff7b16ac01de311c0365715 *gd80-05-30d1t01.flac
6212075975007903fd1617012ac52416 *gd80-05-30d1t02.flac
f4dabc2b2bf5f848c77d55c5531761f6 *gd80-05-30d1t03.flac
cedf9a51822c99b2cb9a0e01861495ec *gd80-05-30d1t04.flac
d7488d1ba2ed13166b126892cdb36095 *gd80-05-30d1t05.flac
2928147eccf36ce2d9825c21aed56547 *gd80-05-30d1t06.flac
a68c21ddacfc691f0f50eca1cf619252 *gd80-05-30d1t07.flac
46cec7f5aa38f7684454d2056442a497 *gd80-05-30d1t08.flac
09a8f33e0de49203b637785a9e276a61 *gd80-05-30d1t09.flac
edb8f7b6fdb35df31c0a1c413c1bf470 *gd80-05-30d2t01.flac
bc04eca6ba17e2bc23892e928ad833ba *gd80-05-30d2t02.flac
be7d5b738cc5ec12e377a35fcbd4503f *gd80-05-30d2t03.flac
aec10363f2489f6339e1eb85b1bafecb *gd80-05-30d2t04.flac
137aa3d40ab88970e8d3896e412eb50f *gd80-05-30d2t05.flac
c69abaa7acc988aed0c4217d6247f442 *gd80-05-30d2t06.flac
f60df9ce60e488965609ab8ef06824ac *gd80-05-30d2t07.flac
5cc7af6d515d0429f06bccb003cff9ee *gd80-05-30d2t08.flac
3048772efcb28270c33d97306278a02e *gd80-05-30d2t09.flac
f5bab15d55e89e247b43b96b26de9170 *gd80-05-30d2t10.flac
ffp
gd80-05-30d1t01.flac:d4a5756096a404b5f8c8d2d5542f403c
gd80-05-30d1t02.flac:08c05c05be37006ead3b3f2b426f3318
gd80-05-30d1t03.flac:10195b452a467f8695ffd0062b353dbd
gd80-05-30d1t04.flac:479eac49a660bd343acf28c4fd6b64aa
gd80-05-30d1t05.flac:b8d40632ee60fc1bef01075a97cf113d
gd80-05-30d1t06.flac:ac07431b0aad1dc844d7e6cfa77a2d62
gd80-05-30d1t07.flac:708e8ae38c606fa9a312ea01eee4ab3c
gd80-05-30d1t08.flac:5c39f6451b3f7288a873e91deac9fe5b
gd80-05-30d1t09.flac:e602f30d008a0a626a46c3034a38d41d
gd80-05-30d2t01.flac:fd63a30704c905aded999dd23459d6af
gd80-05-30d2t02.flac:9b990b4192c5972e20a8e1a605ac55d3
gd80-05-30d2t03.flac:8c666a7c28a866485cb946236670e1cc
gd80-05-30d2t04.flac:e6d3c14b4ee6304866d0e013aa6283e6
gd80-05-30d2t05.flac:5863b8e59a210c875131e0ce81182bb6
gd80-05-30d2t06.flac:9fdf93b9a642415f3274e5f127528469
gd80-05-30d2t07.flac:11fc6d0090832c35356655862eaff1dc
gd80-05-30d2t08.flac:c0b3cd49b6f80c84c45943a75744527b
gd80-05-30d2t09.flac:b4da8c8df2ee50eecf66fbe193ae927f
gd80-05-30d2t10.flac:b3898192f07af69e7258c2ef714b4d8c

Comments
Add Comment
Other Sources (comments)
Source: A:C:C:D > CDR via... (0) flac16; Set 2 only,... (0) flac16; Recorded By... (1)
Date User Comment