Browse Collections Artists Sources   Search Dates

Add Show    List Management    Help


Grateful Dead 09/07/90
Richfield Coliseum, Richfield, OH
Comments Add Comment    Source Collectors    Add to Collection    Add to Want List    History
Source # 92240 Other Sources
Entered by Matt Vernon
Checksums ffp , flac-md5
Disc Counts 2 / 3
Media Size
Date Circulated
Date Added
06/10/2008
06/10/2008
Source Summary flac16; SBD -> Dat -> Cassette Master (TDK SA-X100) Transfer Info: Cassette Master (Nakamichi DR-1) -> Sound Devices 744T (24bit/48k) -> Samplitude Professional v10.02 -> FLAC/16 All Transfers and Mastering By Charlie Miller 
  Archive
Source Information - Download Text | Download Zip
Grateful Dead - September 7, 1990
Richfield Coliseum - Richfield, OH

Recording Info:
SBD -> Dat -> Cassette Master (TDK SA-X100)

Transfer Info:
Cassette Master (Nakamichi DR-1) -> Sound Devices 744T (24bit/48k) ->
Samplitude Professional v10.02 -> FLAC/16
(3 Discs Audio / 2 Discs FLAC)

All Transfers and Mastering By Charlie Miller
charliemiller[email protected]
June 10, 2008

Notes:
-- Set 2 disc change is seamless

Set 1:
d1t01 - Cold Rain & Snow ->
d1t02 - Walkin' Blues
d1t03 - Ramble On Rose
d1t04 - Me And My Uncle ->
d1t05 - Big River
d1t06 - Althea
d1t07 - When I Paint My Masterpiece
d1t08 - Bird Song
d1t09 - Picasso Moon
d1t10 - U.S. Blues

Set 2:
d2t01 - Tuning
d2t02 - China Cat Sunflower ->
d2t03 - I Know You Rider
d2t04 - Truckin' ->
d2t05 - Crazy Fingers ->
d2t06 - Playing In The Band ->
d2t07 - Drums ->
d3t01 - Space ->
d3t02 - I Need A Miracle ->
d3t03 - Black Peter ->
d3t04 - Turn On Your Lovelight

Encore:
d3t05 - Knockin' On Heaven's Door


SHNTOOL OUTPUT:
    length     expanded size   cdr  WAVE problems filename
     6:29.14       68652572    ---   --   -----   gd90-09-07d1t01.wav
     7:25.63       78646220    ---   --   -----   gd90-09-07d1t02.wav
     8:46.08       92805260    ---   --   -----   gd90-09-07d1t03.wav
     3:13.01       34047596    ---   --   -----   gd90-09-07d1t04.wav
     6:29.53       68744300    ---   --   -----   gd90-09-07d1t05.wav
     7:56.03       83973500    ---   --   -----   gd90-09-07d1t06.wav
     7:49.65       82884524    ---   --   -----   gd90-09-07d1t07.wav
    14:20.73      151875740    ---   --   -----   gd90-09-07d1t08.wav
     6:51.68       72660380    ---   --   -----   gd90-09-07d1t09.wav
     5:32.59       58703612    ---   --   -----   gd90-09-07d1t10.wav
     1:48.29       19119452    ---   --   -----   gd90-09-07d2t01.wav
     7:07.51       75442796    ---   --   -----   gd90-09-07d2t02.wav
     6:25.17       67954028    ---   --   -----   gd90-09-07d2t03.wav
     9:31.67      100882028    ---   --   -----   gd90-09-07d2t04.wav
     9:22.17       99176828    ---   --   -----   gd90-09-07d2t05.wav
    17:00.63      180076220    ---   --   -----   gd90-09-07d2t06.wav
     8:04.02       85382348    ---   --   -----   gd90-09-07d2t07.wav
    15:05.21      159691436    ---   --   -----   gd90-09-07d3t01.wav
     3:44.29       39581852    ---   --   -----   gd90-09-07d3t02.wav
     9:59.51      105783596    ---   --   -----   gd90-09-07d3t03.wav
     6:35.25       69736844    ---   --   -----   gd90-09-07d3t04.wav
     7:07.08       75341660    ---   --   -----   gd90-09-07d3t05.wav
   176:47.37     1871162792 B                     (totals for 22 files)
Show Checksums
ffp
gd90-09-07d1t01.flac:92b0e4c51f42eba9c83c48ea738c302a
gd90-09-07d1t02.flac:290220f68fbabf272249a56cdc2bb774
gd90-09-07d1t03.flac:090319d616552db628df2a4f0db13cdd
gd90-09-07d1t04.flac:d95e76aa937eac7309e7e297b757d43e
gd90-09-07d1t05.flac:6d896530309a49e532e7f1c682435238
gd90-09-07d1t06.flac:aca680d82defc239c1817782d423d63e
gd90-09-07d1t07.flac:d8b1bf402ff5366cd1e388af932c4ad4
gd90-09-07d1t08.flac:c0e6e86200cf6e6908996584465ac522
gd90-09-07d1t09.flac:3c92e52d300c373926f9adc1ec5cb2f6
gd90-09-07d1t10.flac:3a01a3511ad6ef192a7e1906c9ccb579
gd90-09-07d2t01.flac:c3acec1e2588f40aae3eb4e14826a9d2
gd90-09-07d2t02.flac:1221801bab576f3c556fd725c5f49db7
gd90-09-07d2t03.flac:66fda9197b02ad4cb1e8d1552db04392
gd90-09-07d2t04.flac:5941343d57343a135131493c20288416
gd90-09-07d2t05.flac:1a5811f361286542b0b996e60ca5c181
gd90-09-07d2t06.flac:e34304e8d65771b380d226b548a3ad37
gd90-09-07d2t07.flac:eab0896968550109dbe9de924553e4db
gd90-09-07d3t01.flac:102950eb30ba5067a1e5a1c0b0bc59a4
gd90-09-07d3t02.flac:6eb816b7168caa2e3398bbbe51413e47
gd90-09-07d3t03.flac:df57b2532338f294086807815ace9f9c
gd90-09-07d3t04.flac:ece8b84a74e99c46024367a1c8f52d99
gd90-09-07d3t05.flac:13b180827d8db59a3856e2a5f800318b
flac-md5
b0db0170eccac47a3bcbbdf505d76e89 *gd90-09-07d1t01.flac
0e2217ab819129bd5c37318a3a8a1434 *gd90-09-07d1t02.flac
6b41a3a51eca4b9293ad8e082b53243b *gd90-09-07d1t03.flac
587b7466c824c6bf5c34a0b5fe2b9e75 *gd90-09-07d1t04.flac
a092aca1c644727156676cd2a03ccdb1 *gd90-09-07d1t05.flac
18f88cdf3ad99267916344f94ce94cef *gd90-09-07d1t06.flac
913c3d572bb90202380c5e887f03cbff *gd90-09-07d1t07.flac
3ff367736f1c298d1cd1d1da3abb0ad6 *gd90-09-07d1t08.flac
92930fae3f2682501dc4a0111aa44739 *gd90-09-07d1t09.flac
907fd42777a850cd6480ed4ddca2faea *gd90-09-07d1t10.flac
0eff71c743f90edcfb8b09672aa107e8 *gd90-09-07d2t01.flac
96bdc3f5c94c9891ddaff04e83f08288 *gd90-09-07d2t02.flac
a53ef2f52dbcc0f845b15564b073c0a5 *gd90-09-07d2t03.flac
eb56448e2a762db4683cd4f74dbe03b9 *gd90-09-07d2t04.flac
da20cfb6c004f1e52575cd04db07b6b3 *gd90-09-07d2t05.flac
2ecb29e8c628f0178e91597db1825acc *gd90-09-07d2t06.flac
41f83e7dd27623e33cdf47fbf9e401b2 *gd90-09-07d2t07.flac
c82c84f73880c45544debe32b0a929c4 *gd90-09-07d3t01.flac
496a020e294c1359238e2b436f963b53 *gd90-09-07d3t02.flac
79b02c95e7101a525eb7b439d913b168 *gd90-09-07d3t03.flac
451b74d299880c916ca7712a61d2918e *gd90-09-07d3t04.flac
72b4ac91a5df5cc973d56a50ddc2404e *gd90-09-07d3t05.flac

Comments
Add Comment
Other Sources (comments)
SBD> Cassette; Conversion:... (6) flac16; Taper: Greg... (1) flac16; Source:... (0) flac16; Master... (0) flac24; Master... (0) flac16/48kHz; Rick... (0)
Date User Comment
09/01/2009 Grateful Darkstar Something odd about Truckin' here. At around 4:48 Bobby sings the words "get that truckin' on" and then immediately repeats them. It isn't a duplicated segment. When comparing this track to shnid 98877 and another aud master that I have, the repeated words are not there.
09/01/2009 Albix Sounds like a duplication to me.
01/16/2012 terrapinstation dot org st5's generated for tagged files:

92b0e4c51f42eba9c83c48ea738c302a [shntool] gd90-09-07d1t01.flac
290220f68fbabf272249a56cdc2bb774 [shntool] gd90-09-07d1t02.flac
090319d616552db628df2a4f0db13cdd [shntool] gd90-09-07d1t03.flac
d95e76aa937eac7309e7e297b757d43e [shntool] gd90-09-07d1t04.flac
6d896530309a49e532e7f1c682435238 [shntool] gd90-09-07d1t05.flac
aca680d82defc239c1817782d423d63e [shntool] gd90-09-07d1t06.flac
d8b1bf402ff5366cd1e388af932c4ad4 [shntool] gd90-09-07d1t07.flac
c0e6e86200cf6e6908996584465ac522 [shntool] gd90-09-07d1t08.flac
3c92e52d300c373926f9adc1ec5cb2f6 [shntool] gd90-09-07d1t09.flac
3a01a3511ad6ef192a7e1906c9ccb579 [shntool] gd90-09-07d1t10.flac
c3acec1e2588f40aae3eb4e14826a9d2 [shntool] gd90-09-07d2t01.flac
1221801bab576f3c556fd725c5f49db7 [shntool] gd90-09-07d2t02.flac
66fda9197b02ad4cb1e8d1552db04392 [shntool] gd90-09-07d2t03.flac
5941343d57343a135131493c20288416 [shntool] gd90-09-07d2t04.flac
1a5811f361286542b0b996e60ca5c181 [shntool] gd90-09-07d2t05.flac
e34304e8d65771b380d226b548a3ad37 [shntool] gd90-09-07d2t06.flac
eab0896968550109dbe9de924553e4db [shntool] gd90-09-07d2t07.flac
102950eb30ba5067a1e5a1c0b0bc59a4 [shntool] gd90-09-07d3t01.flac
6eb816b7168caa2e3398bbbe51413e47 [shntool] gd90-09-07d3t02.flac
df57b2532338f294086807815ace9f9c [shntool] gd90-09-07d3t03.flac
ece8b84a74e99c46024367a1c8f52d99 [shntool] gd90-09-07d3t04.flac
13b180827d8db59a3856e2a5f800318b [shntool] gd90-09-07d3t05.flac

No errors occured.
09/29/2012 charliemiller I compared them and they are the same. I can't imagine there being a skip on the cassette master.