Browse Collections Artists Sources   Search Dates

Add Show    List Management    Help


Grateful Dead 05/09/81
Nassau Veterans Memorial Coliseum, Uniondale, NY
Comments Add Comment    Source Collectors    Add to Collection    Add to Want List    History
Source # 92246 Other Sources
Entered by Matt Vernon
Checksums ffp , flac-md5
Disc Counts 2 / 3
Media Size
Date Circulated
Date Added
06/10/2008
06/11/2008
Source Summary flac16; MATRIX MIX: 1 SBD/2 AUD (About 60%/40%) Matrix by Hunter Seamons using Final Cut Pro (SHN & FLAC>AIFF>Final Cut>WAV>FLAC) June 10, 2008 
  Archive
Source Information - Download Text | Download Zip
Grateful Dead
Nassau Veterans Memorial Coliseum
Uniondale, NY
Saturday, May 9, 1981

MATRIX MIX: 1 SBD/2 AUD (About 60%/40%)

----------------------------------------------------
SBD:

Recording Info:
SBD -> Cassette Master -> Dat

Transfer Info:
Dat (Sony R500) -> SEK'D Prodif Plus -> Samplitude Professional v8.01 -> FLAC
(3 Discs Audio / 2 Discs FLAC)

All Transfers and Mastering By Charlie Miller
[email protected]
March 14, 2006

Patch Info
Barry Glassberg's (FOB)Nak 700.Cm supplies first 5 seconds of Half Step
Rob Eaton's (FOB)Senn 421 + PZM Mix>Cm supplies the follwoing patches:
Eyes Of The World 6:38 - 6:48
Black Peter 7:16 - end of the show

Notes:
-- Seamless transition between Discs 2 and 3.

----------------------------------------------------
AUD 1:

Source: NAK-700's > SONY TC-D5M  Dolby On taped by Barry Glassberg FOB
Lineage: AUDMC > Tascam 122MKIII > Tascam DA-40 > DAT by Mark Cohen
DAT > CD by John Steinthal: Sony PCM-R500 > Dell Precision (via delta dio2496 card) >
Soundforge (normalize/cross fades) > CDWAV > Prassi Primo CD plus: (layout tracks and burn) > CD
CD > EAC(secure) > mkwact > SHN(seekable) by [email protected]

Recorded By Barry Glassberg

AUD 2:

Recording Info:
(FOB) Sennheiser 421 + PZM -> Cassette Master (Nak 500) -> Dat (48k)

Transfer Info:
Dat (Sony R500) -> SEK'D Prodif Plus -> Samplitude Professional v8.01 -> FLAC
(3 Discs Audio / 2 Discs FLAC)

Recorded By Rob Eaton

All Transfers and Mastering By Charlie Miller
[email protected]
March 15, 2006

---------------------------------------------------

Thanks to Charlie Miller for the sources, and to Rob Eaton and Barry Glassberg for recoding this fine, fine show.

Matrix by Hunter Seamons using Final Cut Pro (SHN & FLAC>AIFF>Final Cut>WAV>FLAC)
June 10, 2008


Set 1:
d1t01 - Mississippi Half-Step Uptown Toodeloo ->
d1t02 - Franklin's Tower ->
d1t03 - Feel Like A Stranger
d1t04 - Bird Song
d1t05 - Little Red Rooster
d1t06 - Candyman
d1t07 - Mama Tried ->
d1t08 - Mexicali Blues
d1t09 - Looks Like Rain ->
d1t10 - China Cat Sunflower ->
d1t11 - I Know You Rider

Set 2:
d2t01 - Lost Sailor ->
d2t02 - Saint Of Circumstance ->
d2t03 - Ship Of Fools
d2t04 - Estimated Prophet ->
d2t05 - Eyes Of The World ->
d2t06 - Drums ->
d3t01 - Space ->
d3t02 - Truckin' ->
d3t03 - Black Peter ->
d3t04 - Around And Around ->
d3t05 - One More Saturday Night

Encore:
d3t06 - Brokedown Palace

Notes:

1) While not the most ideal AUD on its own, Glassberg's source complemented the SBD best (consistent with the 05-08-81 matrix), and Eaton's AUD is used only for patches in the SBD. In these cases, only Eaton's source plays.

2) There was more tape hiss in the SBD source, it seems, than the previous night, especially during the first two minutes of Half-Step.

3) After the cut in the SBD during Eyes, the overall quality of the SBD is slightly diminished. One glaring difference is that not all of the drum pieces are as fully present. I noticed the high-hat (or one of them) is not present in the SBD any more, but is very audible in the AUD, so the AUD helps fill all instrumentation that is lacking in the SBD. Weird stuff.

4) As always - enjoy!


length     expanded size    cdr  WAVE problems  fmt   ratio  filename
     7:54.03       83620700 B   ---   --   ---xx  gd81-05-09d1t01.flac
    10:03.50      106486844 B   ---   --   ---xx  gd81-05-09d1t02.flac
     9:18.24       98487692 B   ---   --   ---xx  gd81-05-09d1t03.flac
     9:28.05      100207004 B   ---   --   ---xx  gd81-05-09d1t04.flac
     8:49.63       93463820 B   ---   --   ---xx  gd81-05-09d1t05.flac
     6:53.66       73008476 B   ---   --   ---xx  gd81-05-09d1t06.flac
     2:25.41       25674476 B   ---   --   ---xx  gd81-05-09d1t07.flac
     5:10.15       54719324 B   ---   --   ---xx  gd81-05-09d1t08.flac
     8:12.12       86817068 B   ---   --   ---xx  gd81-05-09d1t09.flac
     6:27.09       68288012 B   ---   --   ---xx  gd81-05-09d1t10.flac
     5:35.00       59094044 B   ---   --   ---xx  gd81-05-09d1t11.flac
     7:23.31       78218156 B   ---   --   ---xx  gd81-05-09d2t01.flac
     6:47.26       71855996 B   ---   --   ---xx  gd81-05-09d2t02.flac
     9:03.05       95797004 B   ---   --   ---xx  gd81-05-09d2t03.flac
    11:30.00      121716044 B   ---   --   ---xx  gd81-05-09d2t04.flac
    14:24.02      152414348 B   ---   --   ---xx  gd81-05-09d2t05.flac
     9:51.09      104273612 B   ---   --   ---xx  gd81-05-09d2t06.flac
     4:47.27       50690348 B   ---   --   ---xx  gd81-05-09d3t01.flac
    11:52.03      125603900 B   ---   --   ---xx  gd81-05-09d3t02.flac
     9:50.09      104097212 B   ---   --   ---xx  gd81-05-09d3t03.flac
     3:54.01       41279996 B   ---   --   ---xx  gd81-05-09d3t04.flac
     4:20.67       46021628 B   ---   --   ---xx  gd81-05-09d3t05.flac
     6:40.68       70719980 B   ---   --   ---xx  gd81-05-09d3t06.flac
   180:42.11     1912555684 B                            0.5272  (23 files)

Show Checksums
ffp
gd81-05-09d1t01.flac:0afaec97bba1649d732f098e69ea5b91
gd81-05-09d1t02.flac:909010330db1c4db0be20eb8f49795c2
gd81-05-09d1t03.flac:78ea9d2c257e847926531e11fedc9832
gd81-05-09d1t04.flac:f6b593b7a385e3ad5119b43aea45464a
gd81-05-09d1t05.flac:ed44ab8adb514bd1cda96adcb36fab72
gd81-05-09d1t06.flac:fc473571958d565e994dc5f94abe3ce8
gd81-05-09d1t07.flac:6e2cc9de1dff2c76b1ed3a72c5f65ded
gd81-05-09d1t08.flac:a7099fe498f0df36faaaeb7c4f3c696a
gd81-05-09d1t09.flac:fe94565836a59a365bbf95adbd66a68b
gd81-05-09d1t10.flac:6967a7279a0df222dc56f06de02b458f
gd81-05-09d1t11.flac:1e396960d6283ca49dbfd99f650e9158
gd81-05-09d2t01.flac:32a83f07f602fcf3e0078a318050768b
gd81-05-09d2t02.flac:bc303ba37ff550c597b2bc2838acca0b
gd81-05-09d2t03.flac:f5703868173a65a24257cb6abc019313
gd81-05-09d2t04.flac:d9578541c62b8ca2476297f5f98fdb6f
gd81-05-09d2t05.flac:c045a18e4c38989832ee54f98ff3e8a0
gd81-05-09d2t06.flac:f6fc8bf075a94ab23d54d7515914f590
gd81-05-09d3t01.flac:fd8e98455bc4067bd0f8e0dffdcc7c16
gd81-05-09d3t02.flac:484edc27a1744bd5d8be59f63f8bd9f2
gd81-05-09d3t03.flac:a06378ba42d82f3f9c4c2ae506b26b26
gd81-05-09d3t04.flac:6e5d272aa283d6e0d0d4169b0d81d2fe
gd81-05-09d3t05.flac:c7711edd32a2da1cd69ac5d0bdff64b3
gd81-05-09d3t06.flac:72613f9ddb9ec5525108d64f0b6b528a
flac-md5
e37225af24415adcd2a91e35a4bf30d9 *gd81-05-09d1t01.flac
f012b3c718a39b71a9ed442fe3860d79 *gd81-05-09d1t02.flac
27797e3015e34331f08c930ac212bce3 *gd81-05-09d1t03.flac
f8f78c798ec9f01475d59a3127ce244e *gd81-05-09d1t04.flac
5f38f17f4b255f586411baa512c1ae9d *gd81-05-09d1t05.flac
4adcde5dab2f33524f5cc661aef8e722 *gd81-05-09d1t06.flac
693a0e5953d3a5df86838ebfa3e9ed3d *gd81-05-09d1t07.flac
7ca19fd7e88881adf06e9879e389d86b *gd81-05-09d1t08.flac
e2fe360026a7249351c85727ca2facdf *gd81-05-09d1t09.flac
9a65d217a60e27c37c929fee9377d6f1 *gd81-05-09d1t10.flac
e0d12dc9be08c62b58808b0a145b7aaa *gd81-05-09d1t11.flac
a49e93dc5d363e8798e79bdf759cbe7b *gd81-05-09d2t01.flac
a8c931e72d00966c464a76470a0ba240 *gd81-05-09d2t02.flac
c282cf938e0593149c92b8b353c48f1d *gd81-05-09d2t03.flac
0fa9a3ec530be5e2e82f123683ae5562 *gd81-05-09d2t04.flac
040e8cf4dace5a692c9f00e3aaef8283 *gd81-05-09d2t05.flac
438b309862cc11026ec61a02d8fca906 *gd81-05-09d2t06.flac
d53618ee0119ab3256f7ae30f09f49fd *gd81-05-09d3t01.flac
75affe2326fdd4b9dccf7ff0764f7565 *gd81-05-09d3t02.flac
91f4e51ba9f8414630f3ec5d72800d16 *gd81-05-09d3t03.flac
72d4ae2098d7a010b6d04b3add3977dd *gd81-05-09d3t04.flac
ab2036de7ca2f52dfd6d162db765f942 *gd81-05-09d3t05.flac
dbdd15fb82733982bbaacc844c204d9a *gd81-05-09d3t06.flac

Comments
Add Comment
Other Sources (comments)
Recording by Jim Wise. AUD>... (1) Recording by Barry... (2) flac16;Recording By... (0) flac16; SBD ->... (0) flac16; Matrix of... (1) flac24; Sennheiser... (0) flac16; Sennheiser... (1) flac16; source: aud... (0) flac24; source: aud... (0)
Date User Comment