Browse Collections Artists Sources   Search Dates

Add Show    List Management    Help


Grateful Dead 08/23/87
Calaveras County Fairgrounds, Angels Camp, CA
Comments Add Comment    Source Collectors    Add to Collection    Add to Want List    History
Source # 92277 Other Sources
Entered by Matt Vernon
Checksums st5 , cfp , ffp , flac-md5
Disc Counts 2 / 3
Media Size
Date Circulated
Date Added
06/13/2008
06/13/2008
Source Summary flac16; Analog Audience Source: FOB Master Cassettes (MAC) Medium Stock Brands: MAC = 2 x Maxell UDXLIIs Analog Lineage: 2 x AKG C460 CK61uls => Uher CR240 >> MAC Analog MAC >> Nakamichi DR-1 => Grace Design Lunatec v3 => Korg MR-1000 >> DSF [1-bit 5.6448 MHz Stereo] >> Korg MR-1000 => Korg AudioGate >> WAV [24/96] Taped By: Danny Thompson Transfer By: Adam Egert Mastering By: Derek McCabe 
  Archive
Source Information - Download Text | Download Zip
MOTB Release: 0072 16/44.1
Release Date: 2008-05-29
Band: Grateful Dead
Date: 1987-08-23 (Sunday)
Venue: Calaveras County Fairgrounds
Location: Angel's Camp, CA
Analog Audience Source: FOB Master Cassettes (MAC)
Medium Stock Brands: MAC = 2 x Maxell UDXLIIs
Analog Lineage: 2 x AKG C460 CK61uls => Uher CR240 >> MAC
Analog MAC >> Nakamichi DR-1 => Grace Design Lunatec v3 => Korg MR-1000 >> DSF [1-bit 5.6448 MHz Stereo] >> Korg MR-1000 => Korg AudioGate >> WAV [24/96]
Taped By: Danny Thompson
Transfer By: Adam Egert
Mastering By: Derek McCabe

Set 1:
d1t01 - Box Of Rain
d1t02 - Jack Straw
d1t03 - West L.A. Fadeaway
d1t04 - Me And My Uncle ->
d1t05 - Mexicali Blues
d1t06 - High Time
d1t07 - Walkin' Blues
d1t08 - AIko AIko *
d1t09 - All Along The Watchtower

Set 2:
d2t01 - Scarlet Begonias ->
d2t02 - Fire On The Mountain
d2t03 - Playing In The Band ->
d2t04 - Drums ->
d3t01 - Space ->
d3t02 - I Need A Miracle ->
d3t03 - Dear Mr. Fantasy ->
d3t04 - Playing In The Band Reprise ->
d3t05 - Morning Dew

Encore:
d3t06 - Not Fade Away ->
d3t07 - Brokedown Palace

* with Carlos Santana

Mastering Notes:
Edits done in Bias Peak w/ Nomad Factory AMT Multi MAx

Notes:
Way up front FOB -- almost to the point where it was too loud. At times the mics sound very saturated, even though the levels were no where near clipping. This recording at times is fantastic, but it is an outdoor show with wind that causes some phasing and some clarity issues - especially in the second set. No other AUD tape circulates of this show.

SHNTOOL OUTPUT:
    length     expanded size   cdr  WAVE problems filename
     4:56.18       52256780    ---   --   ---xx   gd1987-08-23.fob.motb.0072.d1t01.flac
     6:03.00       64033244    ---   --   ---xx   gd1987-08-23.fob.motb.0072.d1t02.flac
     7:45.19       82070732    ---   --   ---xx   gd1987-08-23.fob.motb.0072.d1t03.flac
     3:15.25       34456844    ---   --   ---xx   gd1987-08-23.fob.motb.0072.d1t04.flac
     4:53.47       51795788    ---   --   ---xx   gd1987-08-23.fob.motb.0072.d1t05.flac
     7:55.56       83921756    ---   --   ---xx   gd1987-08-23.fob.motb.0072.d1t06.flac
     5:37.69       59609132    ---   --   ---xx   gd1987-08-23.fob.motb.0072.d1t07.flac
     6:22.66       67540076    ---   --   ---xx   gd1987-08-23.fob.motb.0072.d1t08.flac
     5:19.00       56271644    ---   --   ---xx   gd1987-08-23.fob.motb.0072.d1t09.flac
     8:43.20       92304284    ---   --   ---xx   gd1987-08-23.fob.motb.0072.d2t01.flac
    10:25.74      110424092    ---   --   ---xx   gd1987-08-23.fob.motb.0072.d2t02.flac
     9:39.64      102286172    ---   --   ---xx   gd1987-08-23.fob.motb.0072.d2t03.flac
     8:36.18       91064780    ---   --   ---xx   gd1987-08-23.fob.motb.0072.d2t04.flac
     5:57.46       63083036    ---   --   ---xx   gd1987-08-23.fob.motb.0072.d3t01.flac
     3:33.17       37613228    ---   --   ---xx   gd1987-08-23.fob.motb.0072.d3t02.flac
     5:06.37       54065468    ---   --   ---xx   gd1987-08-23.fob.motb.0072.d3t03.flac
     2:34.28       27231500    ---   --   ---xx   gd1987-08-23.fob.motb.0072.d3t04.flac
    10:40.50      113013644    ---   --   ---xx   gd1987-08-23.fob.motb.0072.d3t05.flac
     8:24.66       89060876    ---   --   ---xx   gd1987-08-23.fob.motb.0072.d3t06.flac
     5:22.00       56800844    ---   --   ---xx   gd1987-08-23.fob.motb.0072.d3t07.flac
   131:13.45     1388903920 B                     (totals for 20 files, 0.6154 overall compression ratio)

There were no sector boundary errors.
Show Checksums
st5
ba521d5e50f3b3a32e0e47b4e733c85f [shntool] gd1987-08-23.fob.motb.0072.d1t01.flac
3ddd4fd76a9c85a3e0063543139ebcfb [shntool] gd1987-08-23.fob.motb.0072.d1t02.flac
72388c2269780b97c37283fb85964a8d [shntool] gd1987-08-23.fob.motb.0072.d1t03.flac
3a0f730074fd4deda97b8896af1c3372 [shntool] gd1987-08-23.fob.motb.0072.d1t04.flac
d617f626c3b4cfa94ce1b6e957db2077 [shntool] gd1987-08-23.fob.motb.0072.d1t05.flac
84aa684e9a4ac0c69f29ffc4689867f9 [shntool] gd1987-08-23.fob.motb.0072.d1t06.flac
1f3f3a9c3ec8b5dd7729674a71e88af2 [shntool] gd1987-08-23.fob.motb.0072.d1t07.flac
a38145aa52ea078d4bc1f983e48eec7b [shntool] gd1987-08-23.fob.motb.0072.d1t08.flac
d4920556a6bf9ff75e0f625d155eaeeb [shntool] gd1987-08-23.fob.motb.0072.d1t09.flac
107870ee5e176a300ff3d9a6952d98b1 [shntool] gd1987-08-23.fob.motb.0072.d2t01.flac
0e99a19df17f59197e0d3a9fdd159a53 [shntool] gd1987-08-23.fob.motb.0072.d2t02.flac
b715c48266f2a6b0ee75c8b98a2524e7 [shntool] gd1987-08-23.fob.motb.0072.d2t03.flac
faaefd01e02b9c2114f7c82c4b83a3cf [shntool] gd1987-08-23.fob.motb.0072.d2t04.flac
6a81659f539d42caa02109afb6134daf [shntool] gd1987-08-23.fob.motb.0072.d3t01.flac
e7b4828aa6a973a3457bf26e3ca98c01 [shntool] gd1987-08-23.fob.motb.0072.d3t02.flac
7ac3d74f0b6ae1d7d049d707dcd3ceb3 [shntool] gd1987-08-23.fob.motb.0072.d3t03.flac
3e70c49ff49b43b8aa4419f2709dc4f7 [shntool] gd1987-08-23.fob.motb.0072.d3t04.flac
f7a43098686cfa81613eddc79b6ee7e2 [shntool] gd1987-08-23.fob.motb.0072.d3t05.flac
5e1d97c89edbb066ba83a480fe1156ef [shntool] gd1987-08-23.fob.motb.0072.d3t06.flac
efb4b556eb497e969bfd3fc821d901dc [shntool] gd1987-08-23.fob.motb.0072.d3t07.flac
cfp
*gd1987-08-23.fob.motb.0072.d1t01.flac
*gd1987-08-23.fob.motb.0072.d1t02.flac
*gd1987-08-23.fob.motb.0072.d1t03.flac
*gd1987-08-23.fob.motb.0072.d1t04.flac
*gd1987-08-23.fob.motb.0072.d1t05.flac
*gd1987-08-23.fob.motb.0072.d1t06.flac
*gd1987-08-23.fob.motb.0072.d1t07.flac
*gd1987-08-23.fob.motb.0072.d1t08.flac
*gd1987-08-23.fob.motb.0072.d1t09.flac
*gd1987-08-23.fob.motb.0072.d2t01.flac
*gd1987-08-23.fob.motb.0072.d2t02.flac
*gd1987-08-23.fob.motb.0072.d2t03.flac
*gd1987-08-23.fob.motb.0072.d2t04.flac
*gd1987-08-23.fob.motb.0072.d3t01.flac
*gd1987-08-23.fob.motb.0072.d3t02.flac
*gd1987-08-23.fob.motb.0072.d3t03.flac
*gd1987-08-23.fob.motb.0072.d3t04.flac
*gd1987-08-23.fob.motb.0072.d3t05.flac
*gd1987-08-23.fob.motb.0072.d3t06.flac
*gd1987-08-23.fob.motb.0072.d3t07.flac
6bb35d8c07390b947334a0b8d878806d [shntool] composite
ffp
gd1987-08-23.fob.motb.0072.d1t01.flac:ba521d5e50f3b3a32e0e47b4e733c85f
gd1987-08-23.fob.motb.0072.d1t02.flac:3ddd4fd76a9c85a3e0063543139ebcfb
gd1987-08-23.fob.motb.0072.d1t03.flac:72388c2269780b97c37283fb85964a8d
gd1987-08-23.fob.motb.0072.d1t04.flac:3a0f730074fd4deda97b8896af1c3372
gd1987-08-23.fob.motb.0072.d1t05.flac:d617f626c3b4cfa94ce1b6e957db2077
gd1987-08-23.fob.motb.0072.d1t06.flac:84aa684e9a4ac0c69f29ffc4689867f9
gd1987-08-23.fob.motb.0072.d1t07.flac:1f3f3a9c3ec8b5dd7729674a71e88af2
gd1987-08-23.fob.motb.0072.d1t08.flac:a38145aa52ea078d4bc1f983e48eec7b
gd1987-08-23.fob.motb.0072.d1t09.flac:d4920556a6bf9ff75e0f625d155eaeeb
gd1987-08-23.fob.motb.0072.d2t01.flac:107870ee5e176a300ff3d9a6952d98b1
gd1987-08-23.fob.motb.0072.d2t02.flac:0e99a19df17f59197e0d3a9fdd159a53
gd1987-08-23.fob.motb.0072.d2t03.flac:b715c48266f2a6b0ee75c8b98a2524e7
gd1987-08-23.fob.motb.0072.d2t04.flac:faaefd01e02b9c2114f7c82c4b83a3cf
gd1987-08-23.fob.motb.0072.d3t01.flac:6a81659f539d42caa02109afb6134daf
gd1987-08-23.fob.motb.0072.d3t02.flac:e7b4828aa6a973a3457bf26e3ca98c01
gd1987-08-23.fob.motb.0072.d3t03.flac:7ac3d74f0b6ae1d7d049d707dcd3ceb3
gd1987-08-23.fob.motb.0072.d3t04.flac:3e70c49ff49b43b8aa4419f2709dc4f7
gd1987-08-23.fob.motb.0072.d3t05.flac:f7a43098686cfa81613eddc79b6ee7e2
gd1987-08-23.fob.motb.0072.d3t06.flac:5e1d97c89edbb066ba83a480fe1156ef
gd1987-08-23.fob.motb.0072.d3t07.flac:efb4b556eb497e969bfd3fc821d901dc
flac-md5
3ce8de0b08264e9f948acb7244879d02 *gd1987-08-23.fob.motb.0072.d1t01.flac
02cfb0d0766ab3420c2a731f0512ae86 *gd1987-08-23.fob.motb.0072.d1t02.flac
8355d875d58c6e83611e5a4c1d02b3d2 *gd1987-08-23.fob.motb.0072.d1t03.flac
2e0d3fa3a20147934b70a5c824eb3d38 *gd1987-08-23.fob.motb.0072.d1t04.flac
95b154b5d4b3055a5ddfee47ca2c21b2 *gd1987-08-23.fob.motb.0072.d1t05.flac
a60bc8ae0b7b69c898ff199823df09dc *gd1987-08-23.fob.motb.0072.d1t06.flac
3c734048cbbaddb674393fac2abae4a8 *gd1987-08-23.fob.motb.0072.d1t07.flac
b24f0afbcbe8a89bcfa1b96f73a8fef3 *gd1987-08-23.fob.motb.0072.d1t08.flac
5737d6866a0310ad0b21736eda1e5ab6 *gd1987-08-23.fob.motb.0072.d1t09.flac
ca6f17c5d64ca7bb1b8e83f6cbcb6b51 *gd1987-08-23.fob.motb.0072.d2t01.flac
b8d3a66f25444591747d77dda0cdf5d4 *gd1987-08-23.fob.motb.0072.d2t02.flac
f7706dadc2b6cd68d9c9feaa54b0da80 *gd1987-08-23.fob.motb.0072.d2t03.flac
abd3ff76a89d6c53d9d8216586547db7 *gd1987-08-23.fob.motb.0072.d2t04.flac
cce74941b02500e88d9f7c3538e54701 *gd1987-08-23.fob.motb.0072.d3t01.flac
21ad54eae842d864ff958f5318166e7a *gd1987-08-23.fob.motb.0072.d3t02.flac
701bb37b0ca99476d5fdeeeb9eb8c161 *gd1987-08-23.fob.motb.0072.d3t03.flac
f8a4495d213a92be21562fa5108f1547 *gd1987-08-23.fob.motb.0072.d3t04.flac
5eb481182a0038c11e22fbcda00d3f8a *gd1987-08-23.fob.motb.0072.d3t05.flac
a8f5be89f626cb787e3326329611596a *gd1987-08-23.fob.motb.0072.d3t06.flac
5f1c83e56057c841cebcdc2edc8a8bb7 *gd1987-08-23.fob.motb.0072.d3t07.flac

Comments
Add Comment
Other Sources (comments)
SBD> MC> DAT> CDR> EAC>... (7) SBD>MC>DAT>CDR>EAC>shn -... (1) flac24; 2 x AKG C460... (0) flac16; Recording... (4) flac16/48kHz;... (0) flac24; Recording... (0) flac16; Recording... (0) flac16; Recording... (0) flac16; Source Info:... (0)
Date User Comment