Browse Collections Artists Sources   Search Dates

Add Show    List Management    Help


Grateful Dead 04/20/83
Providence Civic Center, Providence, RI
Comments Add Comment    Source Collectors    Add to Collection    Add to Want List    History
Source # 92322 Other Sources
Entered by Matt Vernon
Checksums ffp , flac-md5
Disc Counts 2 / 3
Media Size
Date Circulated
Date Added
06/17/2008
06/17/2008
Source Summary flac16; AUD: Sennheiser MD-421's > Sony TC-D5, recorded from "upper level". Concert recording and transfer to CDR by Jim Wise. CDR > EAC > WavMerge > CD-Wave > Soundforge > TLH > FLAC 
  Archive
Source Information - Download Text | Download Zip
GRATEFUL DEAD
Civic Center
Providence RI
04-20-1983

Disc One (63:37)

01 Touch of Grey >
02 Promised Land
03 Loser
04 Minglewood Blues
05 Ramble on Rose
06 Me & My Uncle >
07 Cumberland Blues
08 Looks Like Rain
09 China Cat Sunflower >
10 I Know You Rider
-- set break --

Disc Two (49:16)

01 Brother Esau
02 Maybe You Know
03 Bertha >
04 Estimated Prophet >
05 Eyes of the World >
06 Drums >

Disc Three (43:04)

01 Space >
02 Throwing Stones >
03 Morning Dew >
04 Sugar Magnolia
-- encore --
05 Don't Ease Me In

AUD: Sennheiser MD-421's > Sony TC-D5, recorded from "upper level".
Concert recording and transfer to CDR by Jim Wise.
CDR > EAC > WavMerge > CD-Wave > Soundforge > TLH > FLAC.

Notes:
- Patch from ShnID-10090 covers tape-flip in Drums, 5:19 > 5:40.
- Second set disc break is seamless.
- Two-disc burn option: make D1 Touch of Grey thru Maybe You Know
  plus Don't Ease, and make D2 Bertha thru Sugar Magnolia.
- THANKS to Jim Wise for the discs!

    length     expanded size    cdr  WAVE problems  fmt   ratio  filename
     6:51.47       72610988 B   ---   --   ---xx   flac  0.6308  gd1983-04-20d1t01.flac
     4:20.00       45864044 B   ---   --   ---xx   flac  0.6447  gd1983-04-20d1t02.flac
     7:29.74       79377692 B   ---   --   ---xx   flac  0.6012  gd1983-04-20d1t03.flac
     8:14.19       87186332 B   ---   --   ---xx   flac  0.6280  gd1983-04-20d1t04.flac
     7:19.57       77573708 B   ---   --   ---xx   flac  0.6022  gd1983-04-20d1t05.flac
     3:15.22       34449788 B   ---   --   ---xx   flac  0.5962  gd1983-04-20d1t06.flac
     6:28.25       68502044 B   ---   --   ---xx   flac  0.6105  gd1983-04-20d1t07.flac
     7:40.34       81224012 B   ---   --   ---xx   flac  0.5936  gd1983-04-20d1t08.flac
     6:09.56       65223356 B   ---   --   ---xx   flac  0.6220  gd1983-04-20d1t09.flac
     5:47.66       61366076 B   ---   --   ---xx   flac  0.6327  gd1983-04-20d1t10.flac
     5:24.13       57184220 B   ---   --   ---xx   flac  0.6270  gd1983-04-20d2t01.flac
     5:02.00       53272844 B   ---   --   ---xx   flac  0.6382  gd1983-04-20d2t02.flac
     6:47.15       71830124 B   ---   --   ---xx   flac  0.6364  gd1983-04-20d2t03.flac
    11:30.65      121868924 B   ---   --   ---xx   flac  0.6189  gd1983-04-20d2t04.flac
    13:01.13      137799020 B   ---   --   ---xx   flac  0.6323  gd1983-04-20d2t05.flac
     7:31.04       79565852 B   ---   --   ---xx   flac  0.5747  gd1983-04-20d2t06.flac
     9:58.05      105499004 B   ---   --   ---xx   flac  0.5827  gd1983-04-20d3t01.flac
     9:42.68      102824780 B   ---   --   ---xx   flac  0.6181  gd1983-04-20d3t02.flac
     9:59.27      105727148 B   ---   --   ---xx   flac  0.6149  gd1983-04-20d3t03.flac
    10:04.51      106665596 B   ---   --   ---xx   flac  0.6331  gd1983-04-20d3t04.flac
     3:19.05       35115404 B   ---   --   ---xx   flac  0.6386  gd1983-04-20d3t05.flac
   155:57.66     1650730956 B                            0.6169  (21 files)

No errors occured.
Show Checksums
ffp
gd1983-04-20d1t01.flac:48a7c15f391f3a6b23ffe00b742ea5f6
gd1983-04-20d1t02.flac:5a9ba106f7973fa9efcd375038240a88
gd1983-04-20d1t03.flac:ee6c245731f8cd23ac795e3cee1957e3
gd1983-04-20d1t04.flac:4ac34a75419d41fafb5d2fe8322ef545
gd1983-04-20d1t05.flac:6632e6fd8b644355187f1525087891de
gd1983-04-20d1t06.flac:a88580f91b57590a8650341a1a8f6a3a
gd1983-04-20d1t07.flac:2607b4f784403294fcf93191dc3b38bb
gd1983-04-20d1t08.flac:2aabe834c78794882e3392a4f4c90ac0
gd1983-04-20d1t09.flac:ea797e402b69b10e75a7234d41d89dc2
gd1983-04-20d1t10.flac:49e829d6ca0d0d24d8a93fdb74a2ee82
gd1983-04-20d2t01.flac:5752bc905811c7e8631b5e8208f58003
gd1983-04-20d2t02.flac:171592e620dcbc547f6c348cb0df29b7
gd1983-04-20d2t03.flac:db1ed6e0d21d397d246c57d218138228
gd1983-04-20d2t04.flac:3cb03ac85ffdc0bbd3e00d37d10483c3
gd1983-04-20d2t05.flac:c9391b3b259791ae6d23d8c42a684b42
gd1983-04-20d2t06.flac:241b22f47bbbbb8bf7a15663126dc48d
gd1983-04-20d3t01.flac:f56149050ac7365f0a4849df07494c59
gd1983-04-20d3t02.flac:f1a037d13b689d8293f96466f6f9d276
gd1983-04-20d3t03.flac:b0719b6b24c8c1b154593fb20ba2adc2
gd1983-04-20d3t04.flac:abe0a2a6e9c881f06519dfa5e30a0ff6
gd1983-04-20d3t05.flac:afa7d9ac395121eb8d16d5d61952c955
flac-md5
81f12f12f0d8598371a9ff6025a7338a *gd1983-04-20d1t01.flac
836588c3cd5c2dc9d4c019969ab64305 *gd1983-04-20d1t02.flac
916230bedab93e2117efd351a07b585a *gd1983-04-20d1t03.flac
bd79baf97402a5162901de79d09948ef *gd1983-04-20d1t04.flac
51b5ad84f7b1d70738fb5c585c8dcdc2 *gd1983-04-20d1t05.flac
d69ce4b25f3d69cebc8aca0db532c884 *gd1983-04-20d1t06.flac
0ba6f91f384adc6127b0b112764b0c3b *gd1983-04-20d1t07.flac
752beab30a4971eb261c1e4082eec691 *gd1983-04-20d1t08.flac
dbdff1387980fc45af5a893541e3f0de *gd1983-04-20d1t09.flac
25f4e5688bf2d51e27159b0baa451154 *gd1983-04-20d1t10.flac
2a6d92c5ba0c1d75f6c2ceb5065f48f5 *gd1983-04-20d2t01.flac
6dffba40b1dd740f3f2e8ae8d30515d1 *gd1983-04-20d2t02.flac
0cb88d58415948c93d17bd5ea9885b00 *gd1983-04-20d2t03.flac
acbae14daa047f5fea72ff753d8c047e *gd1983-04-20d2t04.flac
ebf6d4b2f4128bda181f84891fa3d585 *gd1983-04-20d2t05.flac
75e460d5d28e4cdae29397d9def9c170 *gd1983-04-20d2t06.flac
43d85a2e35485ccde65b2301ef0937d7 *gd1983-04-20d3t01.flac
775ec8b6a7f0b4f5fa03d35efe2ee238 *gd1983-04-20d3t02.flac
87b0ce28afe83fbf9b90800f7eba2be0 *gd1983-04-20d3t03.flac
90a440db5afc288aa58ff6121e6b5367 *gd1983-04-20d3t04.flac
5b392613859c6417b6cff18efe08387a *gd1983-04-20d3t05.flac

Comments
Add Comment
Other Sources (comments)
FOB-Senn. 421?s>Sony... (0) flac16; SBD> Master... (0) flac16; Nakamichi... (0) flac16; Beyer M160's... (1) flac24; AUD: 2x... (1) flac16; AUD: 2x... (1) flac24; Set 1... (1) flac16/48kHz;... (0) flac16; Set 1... (0) flac24; source: nak... (0)
Date User Comment