Browse Collections Artists Sources   Search Dates

Add Show    List Management    Help


Zero 10/27/95
Maritime Hall, San Francisco, CA
Comments Add Comment    Source Collectors    Add to Collection    Add to Want List    History
Source # 92357 Other Sources
Entered by skbnut
Checksums ffp , md5
Disc Counts 1 / 1
Media Size
Date Circulated
Date Added
06/19/2008
06/19/2008
Source Summary Audio Technica 822 -> Dat -> CD Transfer Info: CD -> Samplitude Professional v10.1 -> FLAC 
Source Information - Download Text | Download Zip
Zero - October 27, 1995
Maritime Hall - San Francisco, CA

Recording Info:
Audio Technica 822 -> Dat -> CD

Transfer Info:
CD -> Samplitude Professional v10.1 -> FLAC
(1 Disc Audio / 1 Disc FLAC)

All Transfers and Mastering By Charlie Miller
[email protected]
June 19, 2008

Setlist:
d1t01 - Introduction
d1t02 - Golden Road
d1t03 - Catalina ->
d1t04 - Highway 61 Revisited
d1t05 - Chance In A Million
d1t06 - Home On The Range
d1t07 - Mercury Blues


SHNTOOL OUTPUT:
    length     expanded size   cdr  WAVE problems filename
     1:10.20       12395084    ---   --   -----   zero1995-10-27d1t01.wav
    10:48.71      114474236    ---   --   -----   zero1995-10-27d1t02.wav
     8:18.20       87894284    ---   --   -----   zero1995-10-27d1t03.wav
     9:54.46      104889836    ---   --   -----   zero1995-10-27d1t04.wav
     9:16.49       98193692    ---   --   -----   zero1995-10-27d1t05.wav
    13:58.10      147846764    ---   --   -----   zero1995-10-27d1t06.wav
     6:54.14       73062572    ---   --   -----   zero1995-10-27d1t07.wav
    60:21.05      638756468 B                     (totals for 7 files)
Show Checksums
ffp
zero1995-10-27d1t01.flac:3df8fb43c0054fa09d7afad2a194f6f1
zero1995-10-27d1t02.flac:69a6148190ec17e0d1f2d2e0347c4f5e
zero1995-10-27d1t03.flac:3db7eefc28c07a6bb951f9167aefa5cf
zero1995-10-27d1t04.flac:95bf523d1e7ba9c3fc17f36605234f74
zero1995-10-27d1t05.flac:28e6c9c06332144e17e8f8e17fd1197b
zero1995-10-27d1t06.flac:f16ea65e4514ac255d73a4906ef05eee
zero1995-10-27d1t07.flac:a63547a75cb28e7565de2d255de0f63f
md5
32f7d97eed347b62589ec14425cd365b *zero1995-10-27d1t01.flac
cc9ac48006c6cdb738c068132dfdec65 *zero1995-10-27d1t02.flac
b446306b759975f511b28c288c1b2240 *zero1995-10-27d1t03.flac
fa23cc77ddebd9d9b210cd5156199747 *zero1995-10-27d1t04.flac
9ead57422730e14fa69d66e96227ef3e *zero1995-10-27d1t05.flac
9e503a93245b91a2403472e81b49019a *zero1995-10-27d1t06.flac
752233187440419c984eac4bdaf233fe *zero1995-10-27d1t07.flac

Comments
Add Comment
Date User Comment
06/20/2008 charlie miller Notes from the taper:
Thanks Charlie! I look forward to hearing the edited version.

A bit more detailed source info for the Recording Info. section of this one:

Audio Techinica 822 (~ 7-8' high on stand on balcony behind SBD) -> Sony D-7 @ 48KHz (via line in) -> MDAT -> Sony PCM-R500 (playback) -> s/pdif coax -> Tascam CD-RW700 -> MCD-R

Recorded by Art Newberg and James Bartoli
Initial transfer to disc by James Bartoli

Art and I got there a bit late for what was the Family Dog's opening night for the new Maritime Hall. Zero played the middle slot, between Iron Butterfly and the Gregg Allman Band, and the room was full of rowdy bikers on the main floor so we set up on the balcony. I do not recall seeing any other tapers this night, though someone may have been recording on the floor.

Art's D-7 was the front-of-the-line deck, and my deck was patched out of his at the show with a homebrew 7pin -> 7pin cable. My DAT was used for the initial transfer to disc. I gave Charlie a copy of my master CD-R a while back.