Browse Collections Artists Sources   Search Dates

Add Show    List Management    Help


Grateful Dead 10/30/83
Marin County Veterans Auditorium, San Rafael, CA
Comments Add Comment    Source Collectors    Add to Collection    Add to Want List    History
Source # 92382 Other Sources
Entered by dr.unclear
Checksums shn-md5 , st5
Disc Counts 2 / 2
Media Size
Date Circulated
Date Added
06/21/2008
06/21/2008
Source Summary AUD: Realistic Mini-mics > Sony WM-D6 > Toshiba KT-R2 > Maxell XL-II (1st set) and Maxell XL-IIS (2nd set). Mics on stand, FOB aprx 20th row. Taped by Andrew F. A>D: MAC > Nakamichi CR-2A (tape 2 side A: Nakamichi Dragon) > HHB CDR 830-Plus > EAC > Soundforge 6.0 > CDWave 1.94.5 > WAV > SHN. Transfer by Anne C 
  Archive
Source Information - Download Text | Download Zip
GRATEFUL DEAD
Marin Veterans Memorial Auditorium
San Rafael CA
10-30-1983

Disc One (72:37)

01 Alabama Getaway >
02 Greatest Story Ever Told
03 Friend of the Devil
04 Minglewood Blues
05 Tennessee Jed
06 Cassidy
07 West L.A. Fadeaway
08 Hell in a Bucket >
09 Might as Well
-- set break --
10 Bertha >
11 Samson & Delilah

Disc Two (70:48)

01 Ship of Fools
02 Playin' in the Band >
03 Drums >
04 Sp//ace >
05 Truckin' >
06 Spoonful >
07 Black Peter >
08 Sugar Magnolia
-- encore --
09 Keep Your Day Job

AUD: Realistic Mini-mics > Sony WM-D6 > Toshiba KT-R2 > Maxell XL-II (1st set)
and Maxell XL-IIS (2nd set). Mics on stand, FOB aprx 20th row. Taped by Andrew F.

A>D: MAC > Nakamichi CR-2A (tape 2 side A: Nakamichi Dragon) > HHB CDR 830-Plus >
EAC > Soundforge 6.0 > CDWave 1.94.5 > WAV > SHN. Transfer by Anne C, July 2005.

Notes:
- Soundforge 6.0 used for fades, tape flip splices, and cleanup cuts and crowd
  transitions mostly between songs.
- The mic was blocking Healy's view, and they told us to move. We changed seats
  during intermission, so the tape sounds a little better in the 2nd set.
- Brief cuts in Space at 1:12, 2:34, and 3:22.
- Thanks to Anne for transferring this.

    length     expanded size    cdr  WAVE problems  fmt   ratio  filename
     4:58.58       52703660 B   ---   --   ---xx    shn  0.6068  gd1983-10-30d1t01.shn
     4:08.01       43749596 B   ---   --   ---xx    shn  0.6040  gd1983-10-30d1t02.shn
     9:55.37      105045068 B   ---   --   ---xx    shn  0.5924  gd1983-10-30d1t03.shn
     7:19.16       77477276 B   ---   --   ---xx    shn  0.6040  gd1983-10-30d1t04.shn
     8:31.70       90305084 B   ---   --   ---xx    shn  0.5996  gd1983-10-30d1t05.shn
     5:41.53       60277100 B   ---   --   ---xx    shn  0.6028  gd1983-10-30d1t06.shn
     7:47.41       82475276 B   ---   --   ---xx    shn  0.6028  gd1983-10-30d1t07.shn
     5:22.18       56843180 B   ---   --   ---xx    shn  0.6181  gd1983-10-30d1t08.shn
     4:24.33       46647260 B   ---   --   ---xx    shn  0.6258  gd1983-10-30d1t09.shn
     7:01.72       74433788 B   ---   --   ---xx    shn  0.7003  gd1983-10-30d1t10.shn
     7:26.02       78679148 B   ---   --   ---xx    shn  0.7129  gd1983-10-30d1t11.shn
     9:25.40       99760124 B   ---   --   ---xx    shn  0.6345  gd1983-10-30d2t01.shn
    11:44.23      124239740 B   ---   --   ---xx    shn  0.6910  gd1983-10-30d2t02.shn
     8:33.66       90648476 B   ---   --   ---xx    shn  0.6529  gd1983-10-30d2t03.shn
     9:47.43      103647980 B   ---   --   ---xx    shn  0.5793  gd1983-10-30d2t04.shn
     5:47.66       61366076 B   ---   --   ---xx    shn  0.6261  gd1983-10-30d2t05.shn
     3:06.39       32902172 B   ---   --   ---xx    shn  0.6174  gd1983-10-30d2t06.shn
     8:25.59       89220812 B   ---   --   ---xx    shn  0.5942  gd1983-10-30d2t07.shn
     9:15.16       97939676 B   ---   --   ---xx    shn  0.6334  gd1983-10-30d2t08.shn
     4:42.01       49747196 B   ---   --   ---xx    shn  0.6365  gd1983-10-30d2t09.shn
   143:26.04     1518108688 B                            0.6284  (20 files)

No errors occured.
Show Checksums
shn-md5
cf1f8f967a022f1b60c2cda0ee9b830a *gd1983-10-30d1t01.shn
ebeaea78fa49e15d75ae088d83107b5d *gd1983-10-30d1t02.shn
0f7aaca0772a9e441e7112412e061af6 *gd1983-10-30d1t03.shn
935b3abdfbe550ea597788e365dbdf72 *gd1983-10-30d1t04.shn
9c78099b9c83debcd5cf6a7f58645683 *gd1983-10-30d1t05.shn
30f8f3764d923d9f83f7e5398bdda4bd *gd1983-10-30d1t06.shn
d73c4a537c3fdcf0e3e8b14c9d0e7c8a *gd1983-10-30d1t07.shn
24676f64a7dac797b8d9e6bba98ca55c *gd1983-10-30d1t08.shn
287250529547e7c1563e70220c6de015 *gd1983-10-30d1t09.shn
3254accfd278a2db075f6a1800abb18c *gd1983-10-30d1t10.shn
471310b3cbd90248c7d520df48ae0c99 *gd1983-10-30d1t11.shn
27e23ed5e1b188d4c957dde95e600667 *gd1983-10-30d2t01.shn
c5c76964321f99889b90908ba3ce55ff *gd1983-10-30d2t02.shn
faa08eda617ac90827346bff84ed45da *gd1983-10-30d2t03.shn
e0e1556718ac5f7e8a1c95a445b6c0e4 *gd1983-10-30d2t04.shn
319c75a45237283b8b48ad36c6b26770 *gd1983-10-30d2t05.shn
864574af37b334ed888b7478cbdcc43e *gd1983-10-30d2t06.shn
408701ef30776b0e4557b1302f11e558 *gd1983-10-30d2t07.shn
29aa9c2a18d4c3ff2a33c6ace4066271 *gd1983-10-30d2t08.shn
87c959c13c572558fe23f5eb1ff80646 *gd1983-10-30d2t09.shn
st5
260773fda31b4732ec7f4343bc3c7af8 [shntool] gd1983-10-30d1t01.shn
8754074d8535ac75907b8e152300e346 [shntool] gd1983-10-30d1t02.shn
2a9964b84cead5bbc91e5d66f0f5d478 [shntool] gd1983-10-30d1t03.shn
64d723cfd62eb91a2c789ae19cb515ff [shntool] gd1983-10-30d1t04.shn
e5689c4dd7068fd510731c712e9f2bc4 [shntool] gd1983-10-30d1t05.shn
6121f74f9a59cd06d84b0d7b372b20f4 [shntool] gd1983-10-30d1t06.shn
9d70cc307b72313e2aecfb5b92f42b5c [shntool] gd1983-10-30d1t07.shn
6d7ec649ecdbb8ae33782f6e11db7ae8 [shntool] gd1983-10-30d1t08.shn
efe735b2f10f561d7a7c0bb047b93011 [shntool] gd1983-10-30d1t09.shn
4c857468a9503a982fad912ce8f0e0ba [shntool] gd1983-10-30d1t10.shn
3166127e95bf4b85b22f809d43f82a47 [shntool] gd1983-10-30d1t11.shn
71d17fb7b7feede334a8e82cd344a605 [shntool] gd1983-10-30d2t01.shn
0afdd17979a956f301191be627fe1c34 [shntool] gd1983-10-30d2t02.shn
6226bf15850d98370f6ec072b52b30c8 [shntool] gd1983-10-30d2t03.shn
9e0e01121b8085bba7ae9d0865edc497 [shntool] gd1983-10-30d2t04.shn
e32506a6d0e3b15a404e34697ba50c5d [shntool] gd1983-10-30d2t05.shn
98b03af714c401845f269f677c2819ba [shntool] gd1983-10-30d2t06.shn
432483c0a5109db0f916d794d5acfe1f [shntool] gd1983-10-30d2t07.shn
092fb145820921adf768951153452aca [shntool] gd1983-10-30d2t08.shn
afd0032eca9661ab1ad762792945a340 [shntool] gd1983-10-30d2t09.shn

Comments
Add Comment
Other Sources (comments)
Recording Info: SBD ->... (0) flac24; Recording... (0)
Date User Comment