Browse Collections Artists Sources   Search Dates

Add Show    List Management    Help


Grateful Dead 10/17/83
Olympic Center, Lake Placid, NY
Comments Add Comment    Source Collectors    Add to Collection    Add to Want List    History
Source # 92424 Other Sources
Entered by Matt Vernon
Checksums ffp , flac-md5
Disc Counts 2 / 3
Media Size
Date Circulated
Date Added
06/24/2008
06/24/2008
Source Summary flac16; MATRIX MIX: 2 SBD/ 1 AUD (About 60%/40%); Matrix by Hunter Seamons using Final Cut Pro (FLAC>AIFF>Final Cut>WAV>FLAC); yet another fix/ugrade of the previous matrix sources: shn id 91192 and shn id 91239 
  Archive
Source Information - Download Text | Download Zip
Grateful Dead
Olympic Arena
Lake Placid, NY
October 17, 1983

MATRIX MIX: 2 SBD/ 1 AUD (About 60%/40%)

---------------------------------------------------------------
2 SBD:

Recording Info:
Set 1: SBD -> Master Cassette -> Dat -> Sonic Solutions -> CD -> EAC -> FLAC
Set 2: SBD -> Master Cassette -> Reel -> Dat -> CD -> EAC ->
Samplitude v7.02 Professional -> FLAC

Patch Info:
(FOB/12th Row) Sennheiser 421 -> Master Cassette (Sony D5) -> Dat -> CD
Patches in "Samson" and "Space"

Edited By Charlie Miller
[email protected]
12/26/04

Notes:
-- Seamless transition between discs 2 and 3.

---------------------------------------------------------------
AUD:
Recording Info:
(FOB) Sennheiser 441 + (1) Neumann U87 -> Cassette Master (Nakamichi 550) -> Dat (48k)

Transfer Info:
Dat (Sony R500) -> Sound Devices 744T -> Samplitude Professional v10.02 -> FLAC

All Transfers and Mastering By Charlie Miller
[email protected]
March 24, 2008

Patch Info:
(FOB/12th Row) Sennheiser 421 -> Cassette Master -> Dat -> CD (shnid=347) supplies:
Drums (complete track)

Notes:
-- Recorded By Rob Eaton
-- Dat provided by J.J. Clifton
----------------------------------------------------------------

Thank you to Charlie Miller for the SBD and AUD transfers,
and to Rob Eaton for recording the show.
And thanks to mayormarionbarry for the seed.

Matrix by Hunter Seamons using Final Cut Pro (FLAC>AIFF>Final Cut>WAV>FLAC)
April 3, 2008 Remastered June 24, 2008


SET I

d1t01 - Sugaree ->
d1t02 - Little Red Rooster
d1t03 - Friend Of The Devil
d1t04 - My Brother Esau
d1t05 - Bird Song
d1t06 - Hell In A Bucket ->
d1t07 - Deal

SET II

d2t01 - Touch Of Grey
d2t02 - Samson And Delilah
d2t03 - To Lay Me Down ->
d2t04 - Man Smart (Woman Smarter)
d2t05 - Terrapin Station ->
d2t06 - Drums ->
d3t01 - Space ->
d3t02 - The Wheel ->
d3t03 - I Need A Miracle ->
d3t04 - Goin' Down The Road Feeling Bad ->
d3t05 - Good Lovin'

(Encore)
d3t06 - Revolution


Notes:

1) While there are minor gaps in all sources at various places, there is a three-minute gap in the AUD patch (Sennheiser 421) during Drums, so only the SBD plays for part of Drums.

2) Love the Space in this show, for some reason. Come to think of it, I love this show too.


Remastering Notes (06/24/08):

1) Portions of all songs were re-synced, except Friend of the Devil, Man Smart (Woman Smarter), Drums, and I Need a Miracle.



length     expanded size    cdr  WAVE problems  fmt   ratio  filename
    16:41.12      176604668 B   ---   --   ---xx  gd83-10-17d1t01.flac
     9:34.18      101295980 B   ---   --   ---xx  gd83-10-17d1t02.flac
    10:57.57      116028908 B   ---   --   ---xx  gd83-10-17d1t03.flac
     5:40.36       60060716 B   ---   --   ---xx  gd83-10-17d1t04.flac
    14:20.19      151748732 B   ---   --   ---xx  gd83-10-17d1t05.flac
     6:24.09       67758812 B   ---   --   ---xx  gd83-10-17d1t06.flac
    10:44.51      113721596 B   ---   --   ---xx  gd83-10-17d1t07.flac
     7:33.46       80017436 B   ---   --   ---xx  gd83-10-17d2t01.flac
     9:52.02      104433548 B   ---   --   ---xx  gd83-10-17d2t02.flac
     9:02.51       95728796 B   ---   --   ---xx  gd83-10-17d2t03.flac
     7:38.62       80937068 B   ---   --   ---xx  gd83-10-17d2t04.flac
    12:44.72      134938988 B   ---   --   ---xx  gd83-10-17d2t05.flac
    10:19.74      109365692 B   ---   --   ---xx  gd83-10-17d2t06.flac
    10:51.54      114963452 B   ---   --   ---xx  gd83-10-17d3t01.flac
     7:02.22       74492588 B   ---   --   ---xx  gd83-10-17d3t02.flac
     4:38.21       49088636 B   ---   --   ---xx  gd83-10-17d3t03.flac
     7:17.57       77220908 B   ---   --   ---xx  gd83-10-17d3t04.flac
     8:37.72       91368188 B   ---   --   ---xx  gd83-10-17d3t05.flac
     5:18.02       56099948 B   ---   --   ---xx  gd83-10-17d3t06.flac
   175:20.62     1855874660 B                            0.5604  (19 files)



Show Checksums
ffp
gd83-10-17d1t01.flac:34435dba93e265858cc23c84ab9232cc
gd83-10-17d1t02.flac:e1e95f0b1d1665f61bb1b31328d2d831
gd83-10-17d1t03.flac:f62385d84e34d565af5691003b319c83
gd83-10-17d1t04.flac:67a55980676a5161c106f451c6bc9393
gd83-10-17d1t05.flac:ad97bca3053afdac83c1f8fc01d5d50e
gd83-10-17d1t06.flac:0fd9c757235cf4bf2396e5d8ba4ba04e
gd83-10-17d1t07.flac:8ac77b42888907e987bc230aba044c26
gd83-10-17d2t01.flac:f8f168ac2353a0d1a064090217ae13f2
gd83-10-17d2t02.flac:d330a2fdb2bec5258744bfa7d48ae753
gd83-10-17d2t03.flac:e8ccdfc6ff1757bcd6e060b677620d78
gd83-10-17d2t04.flac:9ed914720e8783d9b90b9091a2dcb483
gd83-10-17d2t05.flac:8feb606af7071ba98c2dca3030d16f7c
gd83-10-17d2t06.flac:d90fd5a9abad277accdf8ef4f1485cb2
gd83-10-17d3t01.flac:3bf6e61e0419b761cc74b940eee78248
gd83-10-17d3t02.flac:24737dc9476067768a0ef17e6abfa768
gd83-10-17d3t03.flac:e40390f896f051abba0f67ce718bc915
gd83-10-17d3t04.flac:09b6fab61843dfc968b4d412b4cfdbc5
gd83-10-17d3t05.flac:4a3dcf60c038c17c7aa220ec7b40f4c6
gd83-10-17d3t06.flac:546dc5117acb62405d2d4d0607b770d3
flac-md5
4bc9cc7d08a3cc3cb8c2480a7cd51726 *gd83-10-17d1t01.flac
837a4ae3c155cb0ebed4f5406ba020ce *gd83-10-17d1t02.flac
bdb51ed5a992b0ff0ff870855fa96f94 *gd83-10-17d1t03.flac
5e6f7c14c04106f88f3966c405b87ce9 *gd83-10-17d1t04.flac
cc148803903f43cc6249fc821ecb1c5c *gd83-10-17d1t05.flac
5b1f037fb7060416d8a143de7fe145e5 *gd83-10-17d1t06.flac
0cbc14c448feaefd87efb9b04231099d *gd83-10-17d1t07.flac
186d33b8827f7d8cb0f490bb2517e27e *gd83-10-17d2t01.flac
fa89e3759c75ed139ffc519a357d2920 *gd83-10-17d2t02.flac
84e5fbe544c00ef7fe2446a42e8b22b3 *gd83-10-17d2t03.flac
49371d5f596971d2889b1cb25829822a *gd83-10-17d2t04.flac
5701386ef55be6a9f6d790e8a9f086ac *gd83-10-17d2t05.flac
03d49264aa2c30067a72d5d305076f48 *gd83-10-17d2t06.flac
e48a5e881b9c16e7ad6b7f7cbab9ccc4 *gd83-10-17d3t01.flac
24facb9d49193071692c033dc7ecfd31 *gd83-10-17d3t02.flac
7f3f60a28ac66c2830b41cd33e336b4f *gd83-10-17d3t03.flac
ef80810411799b5bc756e84037a7d2c1 *gd83-10-17d3t04.flac
77cc1fd77951dc35b32b560a2118ffc4 *gd83-10-17d3t05.flac
6214dc8187e963a0bf81e369703e3c17 *gd83-10-17d3t06.flac

Comments
Add Comment
Other Sources (comments)
FOB (12th Row) > Sennheiser... (1) reDAE of very same audio CD... (0) flac16; mixed SBD... (1) flac16; Source: DAT... (0) flac16; Recording... (0) MATRIX MIX: 2 SBD/ 1 AUD... (0) MATRIX MIX: 2 SBD/ 1 AUD... (1) flac16; Lineage:... (1) flac16; 2 Beyer... (0) flac16; Source: 2... (0) flac24; lineage:... (0) flac16; Master... (0) flac24; Master... (0) flac24; Recording... (0) flac16; Recording... (0)
Date User Comment