Browse Collections Artists Sources   Search Dates

Add Show    List Management    Help


Grateful Dead 07/19/94
Deer Creek Music Center, Noblesville, IN
Comments Add Comment    Source Collectors    Add to Collection    Add to Want List    History
Source # 92433 Other Sources
Entered by Matt Vernon
Checksums st5 , flac-md5 , ffp
Disc Counts 2 / 3
Media Size
Date Circulated
Date Added
06/25/2008
06/25/2008
Source Summary flac16; Nak 300's > D6 > MAC > DR-3 > EMU 1212M > 24/96 wave > wavelab 5 > plugins > r8brain > 32/44.1 wave > wavelab 5 (tracked) > L3 > 16/44.1 wave > flac16 (TLH lvl 8) 
  Archive
Source Information - Download Text | Download Zip
Grateful Dead
07-19-1994
Deer Creek Music Center
Noblesville, IN

Source: Audience Recording
Lineage: Nak 300's > D6 > MAC > DR-3 > EMU 1212M > 24/96 wave > wavelab 5 >
plugins > r8brain > 32/44.1 wave > wavelab 5 (tracked) > L3 > 16/44.1 wave >
flac16 (TLH lvl 8)

A **GEMS** Production  www.shnflac.net  

disc 1

d1t01. Tuning
d1t02. Shakedown Street
d1t03. Walkin' Blues
d1t04. Jack A Roe
d1t05. Big River >
d1t06. Maggie's Farm
d1t07. Broken Arrow
d1t08. Tennessee Jed
d1t09. Easy Answers



d2t01. Foolish Heart >
d2t02. Saint Of Circumstance >
d2t03. I Want to Tell You >
d2t04. Playin' In The Band >
d2t05. Drums >
d2t06  Space >
d2t07. Wharf Rat >
d2t08. Throwing Stones
d2t09. Not Fade Away

Encore

d3t01. Rain

-------------------------------------------------------

Notes:

- This is a very nice, solid recording of this show.  This pull has very
nice detail and a good full sound. Thanks John for another fine specimen.
EQ'ed to flavor, plugins to add taste. All tape flips crossfaded. Enjoy.

- Another huge round of applause to John "The Wild Man" Bleich for supplying his
masters and taping these shows for us to enjoy.

- Taped by John Bleich, Transfer and edit by Bgreen

shntool
length     expanded size   cdr  WAVE problems filename
     3:02.27       32168348    ---   --   ---xx   gd1994-07-19.d1t01.flac
    13:10.50      139473644    ---   --   ---xx   gd1994-07-19.d1t02.flac
     6:14.17       66013628    ---   --   ---xx   gd1994-07-19.d1t03.flac
     4:57.35       52473164    ---   --   ---xx   gd1994-07-19.d1t04.flac
     7:15.30       76804604    ---   --   ---xx   gd1994-07-19.d1t05.flac
     6:46.00       71618444    ---   --   ---xx   gd1994-07-19.d1t06.flac
     6:40.26       70621196    ---   --   ---xx   gd1994-07-19.d1t07.flac
     7:48.44       82658732    ---   --   ---xx   gd1994-07-19.d1t08.flac
     7:30.14       79412972    ---   --   ---xx   gd1994-07-19.d1t09.flac
    12:49.14      135684572    ---   --   ---xx   gd1994-07-19.d2t01.flac
     7:28.19       79071932    ---   --   ---xx   gd1994-07-19.d2t02.flac
     4:06.26       43455596    ---   --   ---xx   gd1994-07-19.d2t03.flac
    17:03.12      180485468    ---   --   ---xx   gd1994-07-19.d2t04.flac
     6:17.09       66524012    ---   --   ---xx   gd1994-07-19.d2t05.flac
    15:34.40      164851724    ---   --   ---xx   gd1994-07-19.d2t06.flac
    10:56.39      115810172    ---   --   ---xx   gd1994-07-19.d2t07.flac
    10:16.37      108749468    ---   --   ---xx   gd1994-07-19.d2t08.flac
     9:29.71      100538636    ---   --   ---xx   gd1994-07-19.d2t09.flac
     5:57.72       63144188    ---   --   ---xx   gd1994-07-19.d3t01.flac
   163:24.57     1729560500 B                     (totals for 19 files, 0.6683 overall compression ratio)
Show Checksums
st5
9e44717569a9b2d83acd54dce6acc853 [shntool] gd1994-07-19.d1t01.flac
0d56fce9d5d2074ed7b25f3e1875843e [shntool] gd1994-07-19.d1t02.flac
51f75a0f6455d9f04ebd2c4613df819c [shntool] gd1994-07-19.d1t03.flac
bf4ac983366914b4a1fb24e6ef27a21d [shntool] gd1994-07-19.d1t04.flac
16e865dbae7229315e1d3ff2c4e32b01 [shntool] gd1994-07-19.d1t05.flac
b47711830fbcbd2440990a856fdf99ea [shntool] gd1994-07-19.d1t06.flac
474abde541a04ea90f0f5cb91ea7b823 [shntool] gd1994-07-19.d1t07.flac
15230109a9e4de88f8c3b7f127e67cb7 [shntool] gd1994-07-19.d1t08.flac
fc563c22b8ed82d4d1d93cef649ebbee [shntool] gd1994-07-19.d1t09.flac
92a605a5dea68d553861e74f3afa55d3 [shntool] gd1994-07-19.d2t01.flac
98db6b99b8b578d7b174a507f83d38e3 [shntool] gd1994-07-19.d2t02.flac
70fb390d68fde5d84ffb3d6867de089f [shntool] gd1994-07-19.d2t03.flac
bcb6af41ccb883d3621e9894229a9e56 [shntool] gd1994-07-19.d2t04.flac
18d4692476584c0d85e3896548ed6a68 [shntool] gd1994-07-19.d2t05.flac
10a14be1488195737c48c729fc3386ae [shntool] gd1994-07-19.d2t06.flac
fea10624a7dcf7229ec393c5c3dd8c28 [shntool] gd1994-07-19.d2t07.flac
79fbef7a5f0e67672b6981482f85f5f2 [shntool] gd1994-07-19.d2t08.flac
3c15631cc3227d2b77dc00d2fcf5da6e [shntool] gd1994-07-19.d2t09.flac
23d079350a32d584f050adc67d0f73b1 [shntool] gd1994-07-19.d3t01.flac
flac-md5
b82f5650bf56c44795db24627e7e1b74 *gd1994-07-19.d1t01.flac
8ccee823e7f3804553af9e939b1ea335 *gd1994-07-19.d1t02.flac
5dbec68cc92c95d69e12521fb63ed306 *gd1994-07-19.d1t03.flac
de308d5d25378e35f024fa387a781a2f *gd1994-07-19.d1t04.flac
4eb5a2b6c792f8a8aca46f85aa5bcc29 *gd1994-07-19.d1t05.flac
2226ff6b73627854d9d7125d4a031d82 *gd1994-07-19.d1t06.flac
847baecb9c3b95c500d4f90b61367bfd *gd1994-07-19.d1t07.flac
15227f06b8feb3281a3728a10c256470 *gd1994-07-19.d1t08.flac
0189cde0b3ce85558f23f907bf1ee295 *gd1994-07-19.d1t09.flac
2995aba0cd7ede024d5ec4e9bcbd7919 *gd1994-07-19.d2t01.flac
2d5ccc6ff87b41e83b62380ec57772d5 *gd1994-07-19.d2t02.flac
83e0f4e0ce9572f6d7468ae48512d77c *gd1994-07-19.d2t03.flac
c13744eb7e920bce782ee035c33386ed *gd1994-07-19.d2t04.flac
a79c7fa15d3879974d406d6b07690494 *gd1994-07-19.d2t05.flac
59a8eceee872707f316c258ea12b4aa9 *gd1994-07-19.d2t06.flac
be7bcc02a54d521733e80bb3eff81402 *gd1994-07-19.d2t07.flac
7461a3c4563818ed17e28d2287e9c85c *gd1994-07-19.d2t08.flac
77b5a85fbf0ebf685b8aaac49b165dee *gd1994-07-19.d2t09.flac
2759ee27f717fa40dff20424f170e730 *gd1994-07-19.d3t01.flac
ffp
gd1994-07-19.d1t01.flac:9e44717569a9b2d83acd54dce6acc853
gd1994-07-19.d1t02.flac:0d56fce9d5d2074ed7b25f3e1875843e
gd1994-07-19.d1t03.flac:51f75a0f6455d9f04ebd2c4613df819c
gd1994-07-19.d1t04.flac:bf4ac983366914b4a1fb24e6ef27a21d
gd1994-07-19.d1t05.flac:16e865dbae7229315e1d3ff2c4e32b01
gd1994-07-19.d1t06.flac:b47711830fbcbd2440990a856fdf99ea
gd1994-07-19.d1t07.flac:474abde541a04ea90f0f5cb91ea7b823
gd1994-07-19.d1t08.flac:15230109a9e4de88f8c3b7f127e67cb7
gd1994-07-19.d1t09.flac:fc563c22b8ed82d4d1d93cef649ebbee
gd1994-07-19.d2t01.flac:92a605a5dea68d553861e74f3afa55d3
gd1994-07-19.d2t02.flac:98db6b99b8b578d7b174a507f83d38e3
gd1994-07-19.d2t03.flac:70fb390d68fde5d84ffb3d6867de089f
gd1994-07-19.d2t04.flac:bcb6af41ccb883d3621e9894229a9e56
gd1994-07-19.d2t05.flac:18d4692476584c0d85e3896548ed6a68
gd1994-07-19.d2t06.flac:10a14be1488195737c48c729fc3386ae
gd1994-07-19.d2t07.flac:fea10624a7dcf7229ec393c5c3dd8c28
gd1994-07-19.d2t08.flac:79fbef7a5f0e67672b6981482f85f5f2
gd1994-07-19.d2t09.flac:3c15631cc3227d2b77dc00d2fcf5da6e
gd1994-07-19.d3t01.flac:23d079350a32d584f050adc67d0f73b1

Comments
Add Comment
Other Sources (comments)
DSBd>?>CDR; Seeded to etree... (1) AudioTechnica 815A... (0) flac16; Fix of (2) flac16; Set 2 only,... (0) flac16; Taper: Greg... (0)
Date User Comment