Browse Collections Artists Sources   Search Dates

Add Show    List Management    Help


Grateful Dead 10/12/83
Madison Square Garden, New York, NY
Comments Add Comment    Source Collectors    Add to Collection    Add to Want List    History
Source # 92461 Other Sources
Entered by Matt Vernon
Checksums orig-ffp , flac-md5 , ffp
Disc Counts 2 / 3
Media Size
Date Circulated
Date Added
06/27/2008
06/27/2008
Source Summary flac16; SBD and Audience Matrix Mix of about 60% SBD to 40% Audience. Completed June 26,2008 
  Archive
Source Information - Download Text | Download Zip
Grateful Dead
Madison Square Garden
New York, NY.
October 12, 1983



SBD and Audience Matrix Mix of about  60% SBD to 40% Audience.  Completed June 26,2008


Set 1:


01  Tuning
02  Cold Rain And Snow
03  tuning
04  Minglewood Blues
05  Tuning
06  Ramble On Rose
07  Tuning
08  My Brother Esau
09  Tuning
10  It Must Have Been The Roses
11  Tuning
12  Cassidy
13  Cumberland Blues
14  Tuning
15  Looks Like Rain  -)
16  Might As Well
17  Tuning


Set 2:  


18  Tuning.wav
19  Help On The Way  -)
20  Slipknot!  -)
21  Franklin's Tower
22  Tuning.wav
23  Man Smart (Women Smarter)
24  Tuning
25  He's Gone  -)
26  Drums  -)
27  Space  -)
28  Truckin'  -)
29  Black Peter  -)
30  Not Fade Away
31  Tuning
32  Revolution
33  Tuning
  

Source Info:

        SBD:  shnid 8112  SBD > Cassette Master > Dat x 2 > CDR > SHN

  
   Audience:  shnid=91125 FOB) Sennheiser 441 + (1) Neumann U87 -> Cassette Master (Nakamichi 550)               -> Dat (48k) Taped by Rob Eaton.  Transfered and mastered by Charlie Miller.  Dat
              Dat supplied by J.J. Clifton

Special thanks to Rob Eaton, Charlie Miller,J.J Clifton and Bob Harrell.


For those burning CDRs discs 2 and 3 are seemless.  Disc 3 should start at track 27

Any questions or comments feel free to email me at [email protected]  Enjoy Jim.



SHNTOOL OUTPUT:
    length     expanded size    cdr  WAVE problems  fmt   ratio  filename
     0:05.52        1004348 B   ---   --   -----    wav  1.0000  01  Tuning.wav
     6:42.42       71011628 B   ---   --   -----    wav  1.0000  02  Cold Rain And Snow.wav
     1:57.49       20754092 B   ---   --   -----    wav  1.0000  03  Tuning.wav
     9:17.67       98412428 B   ---   --   -----    wav  1.0000  04  Minglewood Blues.wav
     3:11.15       33727724 B   ---   --   -----    wav  1.0000  05  Tuning.wav
     6:56.51       73502396 B   ---   --   -----    wav  1.0000  06  Ramble On Rose.wav
     2:21.23       24926540 B   ---   --   -----    wav  1.0000  07  Tuning.wav
     4:50.10       51179564 B   ---   --   -----    wav  1.0000  08  My Brother Esau.wav
     1:46.50       18816044 B   ---   --   -----    wav  1.0000  09  Tuning.wav
     5:29.70       58200284 B   ---   --   -----    wav  1.0000  10  It Must Have Neen The Roses.wav
     1:25.01       14996396 B   ---   --   -----    wav  1.0000  11  Tuning.wav
     6:14.55       66103004 B   ---   --   -----    wav  1.0000  12  Cassidy.wav
     9:32.74      101074892 B   ---   --   -----    wav  1.0000  13  Cumberland Blues.wav
     0:45.05        7949804 B   ---   --   -----    wav  1.0000  14  Tuning.wav
     8:37.27       91262348 B   ---   --   -----    wav  1.0000  15  Looks Like Rain  -).wav
     4:23.59       46532012 B   ---   --   -----    wav  1.0000  16  Might As Well.wav
     0:12.17        2156828 B   ---   --   -----    wav  1.0000  17  Tuning.wav
     1:59.38       21081020 B   ---   --   -----    wav  1.0000  18  Tuning.wav
     3:57.28       41872700 B   ---   --   -----    wav  1.0000  19  Help On The Way  -).wav
     9:36.35      101688764 B   ---   --   -----    wav  1.0000  20  Slipknot!  -).wav
    14:02.36      148613516 B   ---   --   -----    wav  1.0000  21  Franklin's Tower.wav
     1:29.34       15779612 B   ---   --   -----    wav  1.0000  22  Tuning.wav
     6:29.58       68756060 B   ---   --   -----    wav  1.0000  23  Man Smart (Woman Smarter).wav
     1:48.71       19218236 B   ---   --   -----    wav  1.0000  24  Tuning.wav
    12:57.66      137218076 B   ---   --   -----    wav  1.0000  25  He's Gone  -).wav
    10:22.01      109723196 B   ---   --   -----    wav  1.0000  26  Drums  -).wav
    14:20.03      151711100 B   ---   --   -----    wav  1.0000  27  Space  -).wav
     7:53.13       83467820 B   ---   --   -----    wav  1.0000  28  Truckin'  -).wav
     9:12.49       97488092 B   ---   --   -----    wav  1.0000  29  Black Peter  -).wav
     8:25.12       89110268 B   ---   --   -----    wav  1.0000  30  Not Fade Away.wav
     1:50.46       19512236 B   ---   --   -----    wav  1.0000  31  Tuning.wav
     5:02.02       53277548 B   ---   --   -----    wav  1.0000  32  Revolution.wav
     0:10.16        1801676 B   ---   --   -----    wav  1.0000  33  Tuning.wav
   183:28.50     1941930252 B                            1.0000  (33 files)
Show Checksums
orig-ffp
01 Tuning.flac:b70b94535ef184dbef6444aff2b2ebf1
02 Cold Rain And Snow.flac:f64961ee8550b663db598909c171c61b
03 Tuning.flac:622b108379d1643f1869571268d8efd2
04 Minglewood Blues.flac:d7abb4fb2407dac44c8f7616f1fc438e
05 Tuning.flac:31b23f658647c8ec681703b0931cccb7
06 Ramble On Rose.flac:352db2ff4bb372130e8bcf65e866b017
07 Tuning.flac:32f6e4d57ac7cd1012a7f8ada46d572a
08 My Brother Esau.flac:de339e6082cb5c88dc3f56ffcb0e213b
09 Tuning.flac:47304002be5dd5a112f633e2c75f7877
10 It Must Have Neen The Roses.flac:3b839be8f3dd369f1370f33572003c3a
11 Tuning.flac:5c527c35d857e49ab2d988ae02cb8375
12 Cassidy.flac:03026c0bebd2e91e55e6d9e67ce7ef5c
13 Cumberland Blues.flac:10e3ee8b13b11aa35e1638ef9b4fa764
14 Tuning.flac:9a19749766d2a740afa1213089c151e9
15 Looks Like Rain -).flac:2bd82985e5b9b174760f60542ab1ec63
16 Might As Well.flac:55a84001c8681ec2b67f2e72b46866a7
17 Tuning.flac:0904c1505ffcb248ecff0b44fe12d2c2
18 Tuning.flac:4d4d414d43546bd0cb128c08e8cd9326
19 Help On The Way -).flac:8222a0559aa2e72de860bb2d5f389468
20 Slipknot! -).flac:654802ca70c0aff2e8c41d5b8cd2e2ae
21 Franklin's Tower.flac:ca4ed3d5cd09e553483a6c7e4d75d724
22 Tuning.flac:17f28a928e00e0dbc5bdb66dd41cdce9
23 Man Smart (Woman Smarter).flac:89a2767a45b27644bdba149fcd2123c8
24 Tuning.flac:f82a8226562c08415b5d593597e9a2c2
25 He's Gone -).flac:e69f4b477575bdbf0a72f33f9cb41bcd
26 Drums -).flac:e94ff4c6119cd6b077fbeefae3f847f0
27 Space -).flac:3bd9617772b8f7b1eb45b58f5aeaed70
28 Truckin' -).flac:18d16482f1140fb98279122a995872e8
29 Black Peter -).flac:9683981fce0b7406b555054d6ac5f602
30 Not Fade Away.flac:301505f4174b24facd9aeb617d7bc042
31 Tuning.flac:29e15e7f8989418392627be0f4cc158a
32 Revolution.flac:a22efee1cb24e8e54f11dbfab280b530
33 Tuning.flac:e62b1450b4a5edf4ce00ddbfd37e5105
flac-md5
da0d73b164ae6695c94de6d286a3e118 *gd83-10-12t01.flac
bcdb04266b73c7385e1df1a8d27391c1 *gd83-10-12t02.flac
d36b61991ddc7680a568d4c06dd8cdb3 *gd83-10-12t03.flac
f09400bcff0762abfe19323742ce54dc *gd83-10-12t04.flac
3dcf57d9c3a99d891a8cf7f126b25b5a *gd83-10-12t05.flac
2a4c3a1f76c305300931b6582facc369 *gd83-10-12t06.flac
877cd5f4f9d4b38c67b08762a2bc031b *gd83-10-12t07.flac
841188bb385380785cc3627ca702af13 *gd83-10-12t08.flac
b005bd14c6406d7b9bd15f37dd3e587a *gd83-10-12t09.flac
34175c0e2e15be2eac8dbec22f2c76c0 *gd83-10-12t10.flac
a93eab4c0719ccd6dfa04f482bc04f4c *gd83-10-12t11.flac
a76a727048b827c7164c317a88770c3a *gd83-10-12t12.flac
fbc6462b7ca30a2d1ab5d35efde768c3 *gd83-10-12t13.flac
61ac9dc3ddf00ae59ba5f3610cf63064 *gd83-10-12t14.flac
329218513ea53a036e152dc9ba106d4e *gd83-10-12t15.flac
a64f930adcaad2b1ffab7a8ff6251007 *gd83-10-12t16.flac
0a36cc61bab244fc31f989cfce09086c *gd83-10-12t17.flac
99bff7ea697419b1758f4e20171b2692 *gd83-10-12t18.flac
765d85419f8fa78742e2f32a870a269d *gd83-10-12t19.flac
d886fd9dbccb952e93a99dc739175799 *gd83-10-12t20.flac
abbc01ffd0b15ddd1905695b7838ebc7 *gd83-10-12t21.flac
72840373591ef8ee09629ae3231bee50 *gd83-10-12t22.flac
5d62ed59978fc8f7ad2f6e62b8137e10 *gd83-10-12t23.flac
b7cc432030b3e5f0a794d74735772f73 *gd83-10-12t24.flac
9f0451034f207fc78fe5af36016d612a *gd83-10-12t25.flac
5be0117663f72eb3dd1b3b0b488ba8aa *gd83-10-12t26.flac
04f8b49c3108fa17b3df22e14c265af7 *gd83-10-12t27.flac
3cb2d433f528d1a03474d3991ce2c2f0 *gd83-10-12t28.flac
cbbb4eada74d3da8821d824441543f65 *gd83-10-12t29.flac
44c393c0b5e846330d1ac889c503d0c9 *gd83-10-12t30.flac
0095ded0e8540e638539fd1eae3c08a9 *gd83-10-12t31.flac
12dcaba5bdb434599559b2cb9d70934c *gd83-10-12t32.flac
e318fa76db4e5c15dd13c0a05c517fc3 *gd83-10-12t33.flac
ffp
gd83-10-12t01.flac:b70b94535ef184dbef6444aff2b2ebf1
gd83-10-12t02.flac:f64961ee8550b663db598909c171c61b
gd83-10-12t03.flac:622b108379d1643f1869571268d8efd2
gd83-10-12t04.flac:d7abb4fb2407dac44c8f7616f1fc438e
gd83-10-12t05.flac:31b23f658647c8ec681703b0931cccb7
gd83-10-12t06.flac:352db2ff4bb372130e8bcf65e866b017
gd83-10-12t07.flac:32f6e4d57ac7cd1012a7f8ada46d572a
gd83-10-12t08.flac:de339e6082cb5c88dc3f56ffcb0e213b
gd83-10-12t09.flac:47304002be5dd5a112f633e2c75f7877
gd83-10-12t10.flac:3b839be8f3dd369f1370f33572003c3a
gd83-10-12t11.flac:5c527c35d857e49ab2d988ae02cb8375
gd83-10-12t12.flac:03026c0bebd2e91e55e6d9e67ce7ef5c
gd83-10-12t13.flac:10e3ee8b13b11aa35e1638ef9b4fa764
gd83-10-12t14.flac:9a19749766d2a740afa1213089c151e9
gd83-10-12t15.flac:2bd82985e5b9b174760f60542ab1ec63
gd83-10-12t16.flac:55a84001c8681ec2b67f2e72b46866a7
gd83-10-12t17.flac:0904c1505ffcb248ecff0b44fe12d2c2
gd83-10-12t18.flac:4d4d414d43546bd0cb128c08e8cd9326
gd83-10-12t19.flac:8222a0559aa2e72de860bb2d5f389468
gd83-10-12t20.flac:654802ca70c0aff2e8c41d5b8cd2e2ae
gd83-10-12t21.flac:ca4ed3d5cd09e553483a6c7e4d75d724
gd83-10-12t22.flac:17f28a928e00e0dbc5bdb66dd41cdce9
gd83-10-12t23.flac:89a2767a45b27644bdba149fcd2123c8
gd83-10-12t24.flac:f82a8226562c08415b5d593597e9a2c2
gd83-10-12t25.flac:e69f4b477575bdbf0a72f33f9cb41bcd
gd83-10-12t26.flac:e94ff4c6119cd6b077fbeefae3f847f0
gd83-10-12t27.flac:3bd9617772b8f7b1eb45b58f5aeaed70
gd83-10-12t28.flac:18d16482f1140fb98279122a995872e8
gd83-10-12t29.flac:9683981fce0b7406b555054d6ac5f602
gd83-10-12t30.flac:301505f4174b24facd9aeb617d7bc042
gd83-10-12t31.flac:29e15e7f8989418392627be0f4cc158a
gd83-10-12t32.flac:a22efee1cb24e8e54f11dbfab280b530
gd83-10-12t33.flac:e62b1450b4a5edf4ce00ddbfd37e5105

Comments
Add Comment
Other Sources (comments)
unknown aud (could be FOB... (2) SBD > Cassette Master > Dat... (0) flac16; Source: FOB... (0) flac16; Sennheiser... (0) flac16; Recording... (0) 2 Beyer M160>Sony TCD5M... (0) flac16; Lineage:... (0) flac16; Source: 2... (0) flac24; Updated... (0) flac16; 2 Source... (0) flac24; Master... (0) flac16; Master... (0) flac24; Updated... (2) flac16; Updated... (2) flac24; Partial Show... (0) flac16; Partial Show... (0)
Date User Comment