Browse Collections Artists Sources   Search Dates

Add Show    List Management    Help


Grateful Dead 03/27/93
Knickerbocker Arena, Albany, NY
Comments Add Comment    Source Collectors    Add to Collection    Add to Want List    History
Source # 92523 Other Sources
Entered by Matt Vernon
Checksums flac-md5 , ffp
Disc Counts 2 / 3
Media Size
Date Circulated
Date Added
08/01/2008
07/01/2008
Source Summary flac16; Recording Info: Set 1: SBD -> Dat -> Cassette Master -> Dat Set 2: SBD -> Dat Transfer Info: Set 1: Dat (Sony R500) -> SEK'D Prodif Plus -> Samplitude Professional v7.02 -> WAV Set 2: Dat (Fostex D5) -> Audiophile 2496 -> Samplitude Professional v7.02 -> WAV Mastering Info: WAV -> Samplitude Professional v10.1 -> FLAC All Transfers By Charlie Miller and Joe Samaritano All Mastering By Charlie Miller 
  Archive
Source Information - Download Text | Download Zip
Grateful Dead - March 27, 1993
Knickerbocker Arena - Albany, NY

Recording Info:
Set 1: SBD -> Dat -> Cassette Master -> Dat
Set 2: SBD -> Dat

Transfer Info:
Set 1: Dat (Sony R500) -> SEK'D Prodif Plus -> Samplitude Professional v7.02 -> WAV
Set 2: Dat (Fostex D5) -> Audiophile 2496 -> Samplitude Professional v7.02 -> WAV

Mastering Info:
WAV -> Samplitude Professional v10.1 -> FLAC
(3 Discs Audio / 2 Discs FLAC)

All Transfers By Charlie Miller and Joe Samaritano
All Mastering By Charlie Miller
[email protected]
June 30, 2008

Notes:
-- Set 2 is seamless
-- Other circulating sources have a cassette gen, noise reduction and EQ applied
-- This source is a clean transfer directly off of the Dats

Set 1:
d1t01 - Tuning
d1t02 - Hell In A Bucket
d1t03 - Bertha
d1t04 - The Same Thing
d1t05 - Peggy-O
d1t06 - Queen Jane Approximately
d1t07 - Broken Arrow
d1t08 - Loose Lucy
d1t09 - Cassidy
d1t10 - Casey Jones

Set 2:
d2t01 - Tuning
d2t02 - Eyes Of The World ->
d2t03 - Estimated Prophet ->
d2t04 - Comes A Time ->
d2t05 - Corrina ->
d2t06 - Drums ->
d3t01 - Space ->
d3t02 - The Wheel ->
d3t03 - All Along The Watchtower ->
d3t04 - Days Between ->
d3t05 - One More Saturday Night

Encore:
d3t06 - I Fought The Law


SHNTOOL OUTPUT:
    length     expanded size   cdr  WAVE problems filename
     1:50.51       19523996    ---   --   -----   gd93-03-27d1t01.wav
     6:33.02       69329948    ---   --   -----   gd93-03-27d1t02.wav
     7:11.11       76054316    ---   --   -----   gd93-03-27d1t03.wav
     7:30.27       79443548    ---   --   -----   gd93-03-27d1t04.wav
     6:07.72       64908188    ---   --   -----   gd93-03-27d1t05.wav
     7:05.13       75000620    ---   --   -----   gd93-03-27d1t06.wav
     6:15.10       66173564    ---   --   -----   gd93-03-27d1t07.wav
     7:07.71       75489836    ---   --   -----   gd93-03-27d1t08.wav
     7:16.41       77006876    ---   --   -----   gd93-03-27d1t09.wav
     5:48.02       61391948    ---   --   -----   gd93-03-27d1t10.wav
     1:05.48       11578940    ---   --   -----   gd93-03-27d2t01.wav
    12:01.36      127269116    ---   --   -----   gd93-03-27d2t02.wav
    11:28.06      121377356    ---   --   -----   gd93-03-27d2t03.wav
     6:46.63       71766620    ---   --   -----   gd93-03-27d2t04.wav
    10:34.42      111936428    ---   --   -----   gd93-03-27d2t05.wav
    11:35.63      122746220    ---   --   -----   gd93-03-27d2t06.wav
    10:10.14      107636972    ---   --   -----   gd93-03-27d3t01.wav
     4:23.13       46423820    ---   --   -----   gd93-03-27d3t02.wav
     5:50.04       61749452    ---   --   -----   gd93-03-27d3t03.wav
     9:50.47      104186588    ---   --   -----   gd93-03-27d3t04.wav
     5:38.17       59663228    ---   --   -----   gd93-03-27d3t05.wav
     2:42.30       28647404    ---   --   -----   gd93-03-27d3t06.wav
   154:53.08     1639304984 B                     (totals for 22 files)
Show Checksums
flac-md5
dfd5fbb1f3e413c03856571b12e33ceb *gd93-03-27d1t01.flac
ceb154ae093e61b5e69ce481854e1d80 *gd93-03-27d1t02.flac
a9561064dbf75603b7589ed235339bac *gd93-03-27d1t03.flac
635f1cfd0cc7dd3948283f0dab063657 *gd93-03-27d1t04.flac
80e011284e20ab25e8ae488791f0b36a *gd93-03-27d1t05.flac
4e7754360e95fd6fab1e9e77132517de *gd93-03-27d1t06.flac
43ae1ac6847777a0786abc7cf0593b6d *gd93-03-27d1t07.flac
3c5628b0efcbb39f621c60543e64c420 *gd93-03-27d1t08.flac
a8246cb0022c144422534cf446ba0229 *gd93-03-27d1t09.flac
4cd0d5b0498744bca00b79b92f0e3cf8 *gd93-03-27d1t10.flac
1f2ec86ad0b5d31b0e90f03309944f2c *gd93-03-27d2t01.flac
ab01603150b787df97dff7b03b6c8184 *gd93-03-27d2t02.flac
6a94306943e0681f1a3663977c26109b *gd93-03-27d2t03.flac
ce96ca57393accecefb81184d181b9f0 *gd93-03-27d2t04.flac
8cc6e98d8c3e364ff54b5bd5af4179a8 *gd93-03-27d2t05.flac
e9c13446a14a0df51f36a593682f0340 *gd93-03-27d2t06.flac
cd516f48490eb0376856c862d306936e *gd93-03-27d3t01.flac
c52fd479763212a3eb896325d392cc96 *gd93-03-27d3t02.flac
590fd54c43d8002941cf43b1baffb27b *gd93-03-27d3t03.flac
abf62bca3bf957a0d3665a031310da4a *gd93-03-27d3t04.flac
324f10cefc40d95d11a078def69669fd *gd93-03-27d3t05.flac
9e2b3897b407e0189a7c1c3dc3e06d3e *gd93-03-27d3t06.flac
ffp
gd93-03-27d1t01.flac:96ad7869daaab0487b769272ae8a89f0
gd93-03-27d1t02.flac:7fd3e48932cccc0b50853038c2b26f53
gd93-03-27d1t03.flac:14c8c97b9487e03a17b5ef9910f9b2af
gd93-03-27d1t04.flac:4233bf52d2745a6a5e46ba370fc5c684
gd93-03-27d1t05.flac:496cee7f0067211cb08685159c036a4a
gd93-03-27d1t06.flac:bd70ec8365722c0fdf7b3f53cedcd5b6
gd93-03-27d1t07.flac:ca3f5904ab08c644f8bfc41d7b083d17
gd93-03-27d1t08.flac:ae2f03f1aeba9bf049407000f54bc838
gd93-03-27d1t09.flac:a1f99e4f986b147011c172232f2bcbfc
gd93-03-27d1t10.flac:58449e7fb57c180eda0ae764179d5f3e
gd93-03-27d2t01.flac:37fdbc7c5a846a5f080ded41118cc6d7
gd93-03-27d2t02.flac:fbf140b41bf4ee8de07612e6045ff4b6
gd93-03-27d2t03.flac:a333ae73a507aa2dfd5441842ec5f245
gd93-03-27d2t04.flac:b43f587c59d6c45355b544cec573b13f
gd93-03-27d2t05.flac:4ea7ad5a18da1d30d99299b435b24d7b
gd93-03-27d2t06.flac:7ace577bcb7fb97d928002f4f6222aaa
gd93-03-27d3t01.flac:d220df0ecf275726bfc4ee3f2720fa49
gd93-03-27d3t02.flac:12c611e5d4c40485b54c7c03a3e4ee94
gd93-03-27d3t03.flac:c2170268717bee63c04478470db3d4e9
gd93-03-27d3t04.flac:1071b11a06842262fb7b7b4425692c06
gd93-03-27d3t05.flac:c26ec4d49141ff5a8addce6eb24cc347
gd93-03-27d3t06.flac:47403e919238661b76324e2fe81d7a58

Comments
Add Comment
Other Sources (comments)
SBD> DAT; via D. DiProsa;... (3) FOB section 5, Row N, Seat... (0) Source: SBD > DAT Transfer:... (2) flac16/48; AUD: AKG... (0) flac16; AUD: AKG... (0) flac16; Master... (0) flac24; Master... (0) flac16; Audience... (0) flac24; Master... (0) flac16; Master... (0) flac16/48kHz; Source... (0) flac16/48kHz; aud... (0)
Date User Comment
07/04/2008 charlie miller Thanks to Joe for his help transferring the DAT. I tried to get it to play in my 3 decks and they wouldn't play the tape without a ton of errors. So I sent Joe the DAT and he got it play (luckily).