Browse Collections Artists Sources   Search Dates

Add Show    List Management    Help


Grateful Dead 06/27/85
Saratoga Performing Arts Center, Saratoga Springs, NY
Comments Add Comment    Source Collectors    Add to Collection    Add to Want List    History
Source # 92645 Other Sources
Entered by Matt Vernon
Checksums ffp , flac-md5
Disc Counts 2 / 3
Media Size
Date Circulated
Date Added
07/06/2008
07/07/2008
Source Summary flac16; Matrix by Hunter Seamons using Final Cut Pro (SHN & FLAC>AIFF>Final Cut>Soundtrack>WAV>FLAC) See info file for details 
  Archive
Source Information - Download Text | Download Zip
Grateful Dead
Saratoga Performing Arts Center
Saratoga Springs, NY
June 27, 1985


SPAC Matrix

----------------------------------------------------
1 SBD:

Recording Info:
SBD -> Master Cassette -> PCM -> Dat

Transfer Info:
Dat (Sony R500) -> SEK'D Prodif Plus -> Samplitude v7.02 Professional -> FLAC
(3 Discs Audio / 2 Discs FLAC)

Transferred and Edited By Charlie Miller
[email protected]
8/27/04

Notes:
I can't confirm this lineage 100%, but that is how my dat was labled and that is how Rob Eaton has it listed, so I can only assume it's correct. I have also seen it listed as SBD>VHS>Cass>Dat>CD. This version sounds better and is more complete than the etree version.

----------------------------------------------------
3 AUDs:

AUD 1
-----
Recorded by Jim Oade
Transferred by Doug Oade, tracked by Darrin Sacks ([email protected])

Field:
Schoeps cmc441 (90deg, 17cm) > Oade M118 > Oade mod SONY PCM-F1

Transfer:
Master PCM > DAW (via SEKD Prodif) > Wav > cdwav > Flac

AUD 2
-----
Source:
Painoman's Master Analog Cassettes
Digital Mastering by Charlie Connor 11/03/01

Lineage:
FOB AUD>CM (unknown mics)>Nak DR-10 (Playback)>
Midiman Flying Cow 24bit/48kHz A/D>RME Digi96/8>
Steinberg's Wavelab 3.0 (bit resolution & resampling to CDR
redbook 16/44.1>CDWav beta1.6 (tracking only)>SHNv3 (MKW ACT)

Correct sector boundaries verified using shntool

Note:

Although, the mics used to record this show are unidentified
it only will take you 5 seconds to realize the deck was patched into  
a veteran FOB taper with good equipment and a great buffer
zone in front of the mics.  This is an awesome "you are there" FOB.

A HUGE special thanks to Painoman for lending me his Master Cassettes,
Which took me a friggin year to digitize. Painoman you have the
patience of a saint.

AUD 3
-----
Source: Nakamichi CM304's + Beyer M101>Sony Mixer>Sony D5M
Location: *Lawn, Stand at 9 Feet
Transfer: Nak CR5A>Lunatec V3(analog out)>[email protected]/96
Editing: Adobe Audition 2.0 dither and resample 16Bit>Cdwav/tracking>flac16
Tapers: Tony Suraci/nak700
Transfer and upload by Tony Suraci.

---------------------------------------------------

Thank you to Charlie Miller for the SBD transfer;
to Jim Oade, Painoman, and Tony Suraci for recording the show;
and to Charlie Connor and Doug Oade for the AUD transfers.

Matrix by Hunter Seamons using Final Cut Pro (SHN & FLAC>AIFF>Final Cut>Soundtrack>WAV>FLAC)
July 6, 2008


Set 1:
-----------
d1t01 - Tuning
d1t02 - In The Midnight Hour ->
d1t03 - Bertha ->
d1t04 - Little Red Rooster
d1t05 - "Get Down From The Balcony"
d1t06 - Stagger Lee ->
d1t07 - El Paso ->
d1t08 - Crazy Fingers ->
d1t09 - Supplication ->
d1t10 - High Time
d1t11 - Hell In A Bucket ->
d1t12 - Don't Ease Me In

Set 2:
-----------
d2t01 - Tuning
d2t02 - Feel Like A Stranger ->
d2t03 - Eyes Of The World ->
d2t04 - Goin' Down The Road Feelin' Bad ->
d2t05 - Man Smart, Woman Smarter ->
d2t06 - Drums ->
d3t01 - Space ->
d3t02 - Truckin' ->
d3t03 - Spoonful ->
d3t04 - Black Peter ->
d3t05 - Turn On Your Lovelight

Encores:
-----------
d3t06 - Tuning
d3t07 - Johnny B. Goode
d3t08 - It's All Over Now, Baby Blue


Notes:

1) There is occasional, minor static in the SBD.

2) Soundtrack Pro was used to reduce/remove static in Rooster, Supplication Jam, Spoonful, and Black Peter. (The static in Drums>Space seems to be instrument related.)

3) While any of the above AUDs could have made a good, interesting matrix, the Force ushered me to choose Oade, and incorporate the other two for the patches, when available.  

4) There is a cut in the Oade Aud during Lovelight (3:23-end of track) Tuning (3) (entire track) and Baby Blue (4:39 to end). Painoman's AUD patches the Lovelight track up to 8:22, and Surac's AUD patches Baby Blue.

5) There are cuts in the SBD during Supplication Jam (0:17-0:29) and Space (3:39-4:39).

6) Some echo effects that the band was using during this time for vocals and instruments can sound like "slippage," but I can confirm that they are not such moments.

7) The show is seamless.  


    length     expanded size    cdr  WAVE problems  fmt   ratio  filename
     3:23.60       35950364 B   ---   --   ---xx  gd85-06-27d1t01.flac
     4:01.33       42590060 B   ---   --   ---xx  gd85-06-27d1t02.flac
     5:12.66       55192076 B   ---   --   ---xx  gd85-06-27d1t03.flac
     8:54.45       94303484 B   ---   --   ---xx  gd85-06-27d1t04.flac
     1:17.06       13596956 B   ---   --   ---xx  gd85-06-27d1t05.flac
     6:44.43       71366780 B   ---   --   ---xx  gd85-06-27d1t06.flac
     5:25.74       57504092 B   ---   --   ---xx  gd85-06-27d1t07.flac
     8:58.15       94938524 B   ---   --   ---xx  gd85-06-27d1t08.flac
     4:40.44       49495532 B   ---   --   ---xx  gd85-06-27d1t09.flac
     9:52.32      104504108 B   ---   --   ---xx  gd85-06-27d1t10.flac
     7:26.16       78712076 B   ---   --   ---xx  gd85-06-27d1t11.flac
     3:53.05       41113004 B   ---   --   ---xx  gd85-06-27d1t12.flac
     1:14.35       13135964 B   ---   --   ---xx  gd85-06-27d2t01.flac
     8:44.42       92532428 B   ---   --   ---xx  gd85-06-27d2t02.flac
     9:15.19       97946732 B   ---   --   ---xx  gd85-06-27d2t03.flac
     4:31.68       47964380 B   ---   --   ---xx  gd85-06-27d2t04.flac
     7:06.70       75311084 B   ---   --   ---xx  gd85-06-27d2t05.flac
    11:21.26      120189596 B   ---   --   ---xx  gd85-06-27d2t06.flac
     8:51.32       93743708 B   ---   --   ---xx  gd85-06-27d3t01.flac
     6:21.41       67304876 B   ---   --   ---xx  gd85-06-27d3t02.flac
     4:36.05       48698204 B   ---   --   ---xx  gd85-06-27d3t03.flac
     8:11.68       86772380 B   ---   --   ---xx  gd85-06-27d3t04.flac
    10:29.62      111101468 B   ---   --   ---xx  gd85-06-27d3t05.flac
     0:17.59        3137612 B   ---   --   ---xx  gd85-06-27d3t06.flac
     4:52.12       51537068 B   ---   --   ---xx  gd85-06-27d3t07.flac
     8:03.32       85276508 B   ---   --   ---xx  gd85-06-27d3t08.flac
   163:49.35     1733919064 B                            0.5772  (26 files)

Show Checksums
ffp
gd85-06-27d1t01.flac:439e4858e626ec4bf6625fd7f0ee22bb
gd85-06-27d1t02.flac:f664bb833b8a4794da183bf45b2e5315
gd85-06-27d1t03.flac:06a157291eafbb28688c0973f982b984
gd85-06-27d1t04.flac:b3d14fcd5cbffe48d140cdc711256ce6
gd85-06-27d1t05.flac:d9d3cf4649968fe224490da1a8d02236
gd85-06-27d1t06.flac:648a02605316fd9b781c00152baa74e7
gd85-06-27d1t07.flac:2578dea8dc5951c60e0089b2588a180a
gd85-06-27d1t08.flac:1ad0ff4ed6b1f1db93c094d601ddb915
gd85-06-27d1t09.flac:2d2f461f428419f289fae2be08e451ba
gd85-06-27d1t10.flac:8a3b8f02712397921fe82fd9ba1e0aff
gd85-06-27d1t11.flac:50278d6c72c4eebd484ca858b8299a76
gd85-06-27d1t12.flac:04c8e99090621a67958b0c8f3584b76b
gd85-06-27d2t01.flac:abccb8161b04bb245d6f71642492b7c3
gd85-06-27d2t02.flac:e7878b0cc60a1ebd70e8ffea9961b0e9
gd85-06-27d2t03.flac:49dda75791021a810cccb12104c8a88f
gd85-06-27d2t04.flac:c94fbe80bff3099909b1d8360eef27b5
gd85-06-27d2t05.flac:ab88444fb92d375ec6df8abcad52a76e
gd85-06-27d2t06.flac:f8eb5cb56ad171691a7764321470b498
gd85-06-27d3t01.flac:a2ad06854b55630f557e0b48c2e2c323
gd85-06-27d3t02.flac:07af45f7beff57655c256beedd20a03b
gd85-06-27d3t03.flac:55f618791b90f6b1aec6d8824ee7992d
gd85-06-27d3t04.flac:67644df95d1d21e7c3ed8308adf8560d
gd85-06-27d3t05.flac:ccb49c2fcb4d7da4e09909f9299fe4e0
gd85-06-27d3t06.flac:9991285d9c6181864f30f7370b0695a9
gd85-06-27d3t07.flac:8d05c1f86e5e0aa2a01633cfdfcb0d84
gd85-06-27d3t08.flac:a45e2c03de8b02b6c03645cbc38058f1
flac-md5
6c7ae6c34ac9ceb816720dc351e6d01b *gd85-06-27d1t01.flac
236bcea056ac81e6dddebf9bb96dbe00 *gd85-06-27d1t02.flac
0be25aad27c5e63f9dc1e5895578fa32 *gd85-06-27d1t03.flac
23a46e731a9862b1f5328678d319c4ed *gd85-06-27d1t04.flac
781af72ac587fbf38cd296d189fafbc0 *gd85-06-27d1t05.flac
560a1bb029fadec11a9e2935888af4cd *gd85-06-27d1t06.flac
be2d94839b3d5dc6551b8549bfb10973 *gd85-06-27d1t07.flac
0abbb7e92fd9d3afb49a55f93d245fd3 *gd85-06-27d1t08.flac
e01f1151181ed04666d0df33edd74cdc *gd85-06-27d1t09.flac
69eb6170e19f56efe007240267c36f23 *gd85-06-27d1t10.flac
10159b5f3f127a125af948b42f8494bf *gd85-06-27d1t11.flac
6d15b616901214090c825107eb8118f0 *gd85-06-27d1t12.flac
bc6f7390a477888db65710518f60cd72 *gd85-06-27d2t01.flac
b973c168eeb382e5b43531544d7b84a7 *gd85-06-27d2t02.flac
d57dba9b222cc6d70522b6854f52b163 *gd85-06-27d2t03.flac
1c7e3e241b499b682d18c958f8e2162c *gd85-06-27d2t04.flac
e6a2427a940e239ad12b8a232f19133a *gd85-06-27d2t05.flac
ee71875ce099849d057b1b9837f2c5b3 *gd85-06-27d2t06.flac
de4c13df301e5692e6bb5bcd411654c4 *gd85-06-27d3t01.flac
90af810f367e2a5d537952ec6404d7b6 *gd85-06-27d3t02.flac
cb41225ea2828be9bd38497dc5060e9e *gd85-06-27d3t03.flac
829a9ee31a666c0cf7b36befd090e473 *gd85-06-27d3t04.flac
0f440744febc5e5b086486806185fb5d *gd85-06-27d3t05.flac
6c59d87de2bd99355607d56baa48b15d *gd85-06-27d3t06.flac
d093f4631aaaefe31b0f2e1f85cf338a *gd85-06-27d3t07.flac
e8323e27474dff9f292b3bb243d51a4a *gd85-06-27d3t08.flac

Comments
Add Comment
Other Sources (comments)
Amy's Soundboard VHS >... (3) FOB AUD> CM (unknown mics)>... (0) Schoeps cmc441 (90deg,... (0) flac16; SBD> Master... (0) flac16; Source: SBD... (0) flac24/96; Source:... (0) flac16; Source:... (0) flac16; Matrix by... (0) flac16; Nakamichi... (0) flac16; Field Gear:... (0) flac24; Nakamichi... (0) flac16; Source: 2... (0) flac24; source: (2)... (0) flac16; MAC... (0) flac24; MAC;... (0) flac24; Source:... (0)
Date User Comment