Browse Collections Artists Sources   Search Dates

Add Show    List Management    Help


Grateful Dead 03/30/80
Capitol Theater, Passaic, NJ
Comments Add Comment    Source Collectors    Add to Collection    Add to Want List    History
Source # 92666 Other Sources
Entered by Matt Vernon
Checksums ffp , flac-md5
Disc Counts 2 / 2
Media Size
Date Circulated
Date Added
07/07/2008
07/07/2008
Source Summary flac16; Recording Info: SBD -> Cassette Master -> Dat (44.1k); Transfer Info: Dat (Sony D8) -> RME Hammerfall Digiface -> Sony Vaio C1VP -> Samplitude Professional v7.02 & v10.1 -> Adobe Audition v1.5 -> FLAC  
  Archive
Source Information - Download Text | Download Zip
Grateful Dead - March 30, 1980
Capitol Theatre - Passaic, NJ

Recording Info:
SBD -> Cassette Master -> Dat (44.1k)

Transfer Info:
Dat (Sony D8) -> RME Hammerfall Digiface -> Sony Vaio C1VP ->
Samplitude Professional v7.02 & v10.1 -> Adobe Audition v1.5 -> FLAC
(2 Discs Audio / 2 Discs FLAC)

All Transfers and Mastering By Charlie Miller
[email protected]
July 7, 2008

Patch Info:
Nakamichi 700 -> Cassette Master -> Dat -> CD (shnid=4740) supplies:
Scarlet Begonias (0:00 - 0:29)
Eyes Of The World (13:03 - 13:17)

Notes:
-- This is a remaster of shnid=27752
-- Fixed the swapped channels
-- Pitch corrected complete show
-- Fixed the patches
-- There was no patch available for the cut at the end of Saint Of Circumstance
-- U.S. Blues With John Belushi on vocals and cartwheels
-- Thanks to Joe B. Jones for his help with the pitch correction

Set 1:
d1t01 - Alabama Getaway ->
d1t02 - The Promised Land
d1t03 - Peggy-O
d1t04 - Cassidy
d1t05 - Loser ->
d1t06 - El Paso
d1t07 - Far From Me
d1t08 - Tennessee Jed
d1t09 - New Minglewood Blues
d1t10 - Althea
d1t11 - Lost Sailor ->
d1t12 - Saint Of Circumstance//

Set 2:
d2t01 - Scarlet Begonias ->
d2t02 - Fire On The Mountain
d2t03 - Estimated Prophet ->
d2t04 - Eyes Of The World ->
d2t05 - Drums ->
d2t06 - Black Peter ->
d2t07 - Sugar Magnolia

Encore:
d2t08 - U.S. Blues


SHNTOOL OUTPUT:
    length     expanded size   cdr  WAVE problems filename
     5:00.12       52948268    ---   --   -----   gd80-03-30d1t01.wav
     4:28.34       47355212    ---   --   -----   gd80-03-30d1t02.wav
     7:30.24       79436492    ---   --   -----   gd80-03-30d1t03.wav
     5:09.61       54651116    ---   --   -----   gd80-03-30d1t04.wav
     6:39.35       70465964    ---   --   -----   gd80-03-30d1t05.wav
     4:51.16       51370076    ---   --   -----   gd80-03-30d1t06.wav
     4:32.02       47985548    ---   --   -----   gd80-03-30d1t07.wav
     4:59.24       52800092    ---   --   -----   gd80-03-30d1t08.wav
     7:16.11       76936316    ---   --   -----   gd80-03-30d1t09.wav
     9:02.68       95768780    ---   --   -----   gd80-03-30d1t10.wav
     6:12.54       65747852    ---   --   -----   gd80-03-30d1t11.wav
     6:23.52       67683548    ---   --   -----   gd80-03-30d1t12.wav
     9:01.67       95590028    ---   --   -----   gd80-03-30d2t01.wav
     9:40.32      102387308    ---   --   -----   gd80-03-30d2t02.wav
    10:57.36      115979516    ---   --   -----   gd80-03-30d2t03.wav
    15:11.51      160820396    ---   --   -----   gd80-03-30d2t04.wav
     6:32.37       69235868    ---   --   -----   gd80-03-30d2t05.wav
    10:39.48      112832540    ---   --   -----   gd80-03-30d2t06.wav
     8:17.35       87753164    ---   --   -----   gd80-03-30d2t07.wav
     5:45.07       60874508    ---   --   -----   gd80-03-30d2t08.wav
   148:12.31     1568622592 B                     (totals for 20 files)
Show Checksums
ffp
gd80-03-30d1t01.flac:e56cb2621a018954371edbc1ee92b403
gd80-03-30d1t12.flac:4108460e552df5457175c84938a1c8a6
gd80-03-30d1t02.flac:c51285d2a33a1438b8e52e5b21c26a03
gd80-03-30d1t03.flac:7a276f3d9946f8eb1785f4b03bd8dc2c
gd80-03-30d1t04.flac:62d45526bb044722a82e38ac56411548
gd80-03-30d1t05.flac:64e633aad92c887803581ecaa4b5b067
gd80-03-30d1t06.flac:bac6806f7f8dc3a8b300ff837a550669
gd80-03-30d1t07.flac:9777891b6df4c1b7f68599532cfeca0d
gd80-03-30d1t08.flac:3f7414675a408156dd1f169ebddab1dd
gd80-03-30d1t09.flac:f394621fdbcb5262cb7308c8f1208f57
gd80-03-30d1t10.flac:4828885227f22860987cfcc4124b56ed
gd80-03-30d1t11.flac:9a8bfd5bd8589e76c802d5c86f50881e
gd80-03-30d2t01.flac:308dbce8e20b28ac5cab71904c5e7dd7
gd80-03-30d2t02.flac:32c2d196b8cd2971b7c4819d185b2350
gd80-03-30d2t03.flac:88b098610e5766cb62e6eab229f49966
gd80-03-30d2t04.flac:226d68e10c60220beb07768df922fd7a
gd80-03-30d2t05.flac:ec0ddee069f12fd316cf31252b60175b
gd80-03-30d2t06.flac:71fc028414a686a58a550b0ef095fb8a
gd80-03-30d2t07.flac:c2a91164f41f9aa8312a57272a5c5d47
gd80-03-30d2t08.flac:eb924c798bcbf395f0145cfddbb0bbe2
flac-md5
56e18d9e3629071cd7d90d978911f52f *gd80-03-30d1t01.flac
13134eaac43e67eb3e99c7c9ee44d267 *gd80-03-30d1t12.flac
e037986e16e1a833951a3cc0a4064d1e *gd80-03-30d1t02.flac
d980f53649e146c449fc8b3ab8706602 *gd80-03-30d1t03.flac
22200c9ca18682d026a0cc12d79de3b7 *gd80-03-30d1t04.flac
17d37bb01e63202eb9461a660eb65c98 *gd80-03-30d1t05.flac
397eb558423335f9280dc6f7fb50cd35 *gd80-03-30d1t06.flac
1a075d881eafd7c4f1d965d0791b7a87 *gd80-03-30d1t07.flac
05c18d1a21d0237062bdd9e8332a8d94 *gd80-03-30d1t08.flac
459e12bf26c1ef97913eb8e67c83adb5 *gd80-03-30d1t09.flac
bdd0be7f50bdf69600c656565f3f5215 *gd80-03-30d1t10.flac
b6d81e388366962e9848139013c37de2 *gd80-03-30d1t11.flac
d472937ea2de30a454a4e61537b190bc *gd80-03-30d2t01.flac
3ea85e05ec2d845e4ac31e538eb6d2fd *gd80-03-30d2t02.flac
4ee3e3df3b3eda2ef1a7bb855943cd7a *gd80-03-30d2t03.flac
d44bc1a4ad836df934979f02738a17e4 *gd80-03-30d2t04.flac
f529959724e99dfe9672a622c1eec5de *gd80-03-30d2t05.flac
0c733e8016111ae843d2936f6fecd701 *gd80-03-30d2t06.flac
93b5da94f31cf74c0afe63e72f3ee40e *gd80-03-30d2t07.flac
f58fdd615bc3beddb6fbefbfa3ad6743 *gd80-03-30d2t08.flac

Comments
Add Comment
Other Sources (comments)
Recording by Barry... (0) flac16; SBD>... (0) flac16; 2 x... (0) flac24; 2 x... (0) flac16; MTX; 2 x... (0)
Date User Comment