Browse Collections Artists Sources   Search Dates

Add Show    List Management    Help


Phish 01/20/90
Webster Hall, Hanover, NH
Comments Add Comment    Source Collectors    Add to Collection    Add to Want List    History
Source # 92801 Other Sources
Entered by Matt Vernon
Checksums shn-md5 , st5
Disc Counts 2 / 2
Media Size
Date Circulated
Date Added
07/14/2008
07/14/2008
Source Summary Tascam PE-120 mics -> Sony WMD-6C (Maxell XL-IIs 90 min) > Cool Edit Pro 2.0 -> 16 bit 44.1khz Wave; Taped and transfered by Tim Leavy 
Source Information - Download Text | Download Zip
PHISH - January 20th, 1990
Webster Hall - Dartmouth College
Hanover, NH

Recording Info:
AUD -> Tascam PE-120 mics -> Sony WMD-6C -> Maxell XL-IIs 90 min ->
Cool Edit Pro 2.0 -> 16 bit 44.1khz Wave

Taped, transfered and remastered by Tim Leavy
[email protected]
July 14th, 2008

Notes:
-- This is a fairly significant upgrade to the only other source I know of that's circulating.
-- Discs 1 and 2 are seamless


DISC ONE
Set 1:
d1t01 - Carolina
d1t02 - Sloth
d1t03 - PA Adjustments
d1t04 - Bathtub Gin
d1t05 - You Enjoy Myself
d1t06 - The Squirming Coil
d1t07 - Caravan
d1t08 - CD Announcement
d1t09 - Lizards
d1t10 - Run Like an Antelope
Set 2:
d1t11 - Oh Kee Pa Ceremony >
d1t12 - Suzy Greenberg
d1t13 - Bouncing Around the Room

DISC TWO
d2t01 - Reba
d2t02 - Tela
d2t03 - La Grange
d2t04 - Lawn Boy
d2t05 - Esther
d2t06 - Mike's Song>
d2t07 - I Am Hydrogen>
d2t08 - Weekapaug Groove

Encore:
d2t09 - Harry Hood

Known Flaws:
-- Lots of feedback during Carolina
-- Weird subsonic modulations from Mike's Bass during Sloth
-- Bathtub Gin 1:39 - 2:03 mono (from right channel)

My left mic battery began to fail right from the start of the show so I replaced it on-the-fly during Bathtub Gin. I compensated for this in CEP2. This is a complete recording and contains no dropouts or missing parts from songs and did not require massive editting. If it sounds oddly similar to John Redmond's source, it's because he took a line-out from me this night.


SHNTOOL OUTPUT:
    length     expanded size    cdr  WAVE problems  fmt   ratio  filename
     2:08.06       22593356 B   ---   --   -----    wav  1.0000  ph1990-01-20d1t01.wav
     3:50.26       40633196 B   ---   --   -----    wav  1.0000  ph1990-01-20d1t02.wav
     1:08.50       12112844 B   ---   --   -----    wav  1.0000  ph1990-01-20d1t03.wav
     6:25.34       67994012 B   ---   --   -----    wav  1.0000  ph1990-01-20d1t04.wav
    16:06.11      170428316 B   ---   --   -----    wav  1.0000  ph1990-01-20d1t05.wav
     5:42.51       60448796 B   ---   --   -----    wav  1.0000  ph1990-01-20d1t06.wav
     7:09.48       75788540 B   ---   --   -----    wav  1.0000  ph1990-01-20d1t07.wav
     0:57.62       10200668 B   ---   --   -----    wav  1.0000  ph1990-01-20d1t08.wav
     9:58.59      105626012 B   ---   --   -----    wav  1.0000  ph1990-01-20d1t09.wav
    10:48.59      114446012 B   ---   --   -----    wav  1.0000  ph1990-01-20d1t10.wav
     1:43.60       18310364 B   ---   --   -----    wav  1.0000  ph1990-01-20d1t11.wav
     5:16.50       55860044 B   ---   --   -----    wav  1.0000  ph1990-01-20d1t12.wav
     4:07.38       43660220 B   ---   --   -----    wav  1.0000  ph1990-01-20d1t13.wav
    12:00.53      127132700 B   ---   --   -----    wav  1.0000  ph1990-01-20d2t01.wav
     6:33.34       69405212 B   ---   --   -----    wav  1.0000  ph1990-01-20d2t02.wav
     5:35.60       59235164 B   ---   --   -----    wav  1.0000  ph1990-01-20d2t03.wav
     2:42.47       28687388 B   ---   --   -----    wav  1.0000  ph1990-01-20d2t04.wav
     8:57.20       94773884 B   ---   --   -----    wav  1.0000  ph1990-01-20d2t05.wav
     6:07.03       64745900 B   ---   --   -----    wav  1.0000  ph1990-01-20d2t06.wav
     2:27.55       26060204 B   ---   --   -----    wav  1.0000  ph1990-01-20d2t07.wav
     6:59.21       73961036 B   ---   --   -----    wav  1.0000  ph1990-01-20d2t08.wav
    12:21.66      130867676 B   ---   --   -----    wav  1.0000  ph1990-01-20d2t09.wav
   139:10.13     1472971544 B                            1.0000  (22 files)


Show Checksums
shn-md5
41f191e801707d7022bdd08242df5752 *ph1990-01-20d2t02.shn
0f891f188e509dbb1d2ca45447e76e27 *ph1990-01-20d2t03.shn
413339452a1fd9aee3460f9d5e2f24d9 *ph1990-01-20d2t04.shn
1183eb961751ecd5a3ea6dde77194cb9 *ph1990-01-20d2t07.shn
833418a0a735e8960ee1d59db3cdc465 *ph1990-01-20d2t08.shn
1449281dcfa4d45362b499b1e8aa0b1a *ph1990-01-20d2t09.shn
c9a9684d6cba189054b9510eefd960a1 *ph1990-01-20d2t06.shn
e34a05bd40b1d793e4461b6e94a8daf1 *ph1990-01-20d2t05.shn
007544ad293f9bfa17950e67f5cf8b94 *ph1990-01-20d1t01.shn
d8d5279d1af8856e709dc8008c4645e7 *ph1990-01-20d1t02.shn
516ff9d472c478a7c1a57242977830f7 *ph1990-01-20d1t03.shn
534430678663beab1a86bf39308a01a8 *ph1990-01-20d1t04.shn
a3f12c439b55473ad93694edf811ec70 *ph1990-01-20d1t05.shn
6499277e1bebb5bdf1c6fbf13115d6ea *ph1990-01-20d1t06.shn
890a378d13452b3476721e8188be4d0f *ph1990-01-20d1t07.shn
393e96727233b2fc19a07e2b6c7ef0dc *ph1990-01-20d1t08.shn
87899af061be170e933ab16bcb346ecb *ph1990-01-20d1t09.shn
96ab5513023f663771da9fe79396905a *ph1990-01-20d1t10.shn
1cd376c66ee0aeae847a609437f95360 *ph1990-01-20d1t11.shn
c71c6ae9e0e20ad53fd6b438d28a0ce4 *ph1990-01-20d1t12.shn
8b76d1921b6e8b8b3f048e60c3156e12 *ph1990-01-20d1t13.shn
4f2790e217049e821dc975947bed8f60 *ph1990-01-20d2t01.shn
st5
7801719c89746c2cb561a8f1d0a92fa0 [shntool] ph1990-01-20d1t01.shn
aa7a447488eed2c51cbebf7b8186c6e0 [shntool] ph1990-01-20d1t02.shn
6bc284b08b9fdaa5a1be2be57bd3e5fb [shntool] ph1990-01-20d1t03.shn
686f0ca2dc1fab7780b848a4f2caeb84 [shntool] ph1990-01-20d1t04.shn
5e13fcb863cbd79c79a8244960a1d7bc [shntool] ph1990-01-20d1t05.shn
43936a85863e2054ce484ba77dd9ce5a [shntool] ph1990-01-20d1t06.shn
111bb6df7d0c6b3a1a6e256ec406b271 [shntool] ph1990-01-20d1t07.shn
9cce642a0cfe648650b16a809a30c6d3 [shntool] ph1990-01-20d1t08.shn
e2281de07b961ce89a79dfe869ed5bac [shntool] ph1990-01-20d1t09.shn
f644f7a3a59123fa92795e87e6375f3d [shntool] ph1990-01-20d1t10.shn
69e98a6e5181c491114d281e94267b04 [shntool] ph1990-01-20d1t11.shn
62ed0b244062c58f488220a05497809f [shntool] ph1990-01-20d1t12.shn
3bdb36fa63e42485152ca269c66945b9 [shntool] ph1990-01-20d1t13.shn
3a87df3d13f09be07e1fe024fd183286 [shntool] ph1990-01-20d2t01.shn
d06deaa9bbf1ad75afabf7727dbbf06a [shntool] ph1990-01-20d2t02.shn
d9b81ce297c1a96a7576c1699a9b01a7 [shntool] ph1990-01-20d2t03.shn
47121880a29da94c386a58860d27701e [shntool] ph1990-01-20d2t04.shn
2caeb75856310afa0e4abbaf58801b3d [shntool] ph1990-01-20d2t05.shn
813b564487cd8e084231b4699ac5b709 [shntool] ph1990-01-20d2t06.shn
8fd66dff13c2f09e683649fc3e77f356 [shntool] ph1990-01-20d2t07.shn
19e4a994a6ae22319310dfc5304a0e32 [shntool] ph1990-01-20d2t08.shn
eafcaea7214de1647a39dad397bfda8e [shntool] ph1990-01-20d2t09.shn

Comments
Add Comment
Other Sources (comments)
AUD > Nak CR-3A (Cass/0);... (2) Tascam PE-120 mics -> Sony... (0) flac16 48kHz SBD;... (0)
Date User Comment