Browse Collections Artists Sources   Search Dates

Add Show    List Management    Help


Drive-By Truckers 06/01/08
Hunter Mountain, Hunter, NY
Comments Add Comment    Source Collectors    Add to Collection    Add to Want List    History
Source # 92819 Other Sources
Entered by Kyle pike
Checksums ffp
Disc Counts 0 / 0
Media Size
Date Circulated
Date Added
06/03/08
07/15/2008
Source Summary [16 Bit] Schoeps CCM4V > Lunatec V2 > Sound Devices 722 (Z-Man) 
Source Information - Download Text | Download Zip
Drive-By Truckers
Mountain Jam
Hunter Mountain
Hunter, New York
6/1/2008

Source: Schoeps CCM4V'S(din)>Lunatec V2>Sound Devices 722 (24/48)
location: FOB/LOC/DFC/KFC/ZFC/AARP 10' High
DSP: Sound Devices 722>Sound Forge 7.0>CD Wave>flac(16)
Recorded By: The Z-Man
Seeded By: The Z-Man

Disc I

01 Introduction
02 The Living Bubba >
03 A Ghost to Most
04 Two Daughters and a Beautiful Wife
05 3 Dimes Down
06 Putting People on the Moon >
07 Ronnie and Neil >
08 Homefield Advantage >
09 Marry Me
10 A Man Is Shot
11 Sundown in Las Vegas >
12
13 Get your Ass on the Plane >
14 Let There Be Rock >
15 *Lookout Mountain

* With Drummer from Felice Brothers
Entire Show Wih Jay Gonzalez on Keyboards
Lots of Wind During the Entire Set!

length     expanded size   cdr  WAVE problems filename
     1:42.63       18141020    ---   --   ---xx   drivebytruckers2008-06-01d01t01.flac
     6:34.73       69673340    ---   --   ---xx   drivebytruckers2008-06-01d01t02.flac
     5:20.51       56567996    ---   --   ---xx   drivebytruckers2008-06-01d01t03.flac
     3:51.45       40854284    ---   --   ---xx   drivebytruckers2008-06-01d01t04.flac
     4:40.55       49521404    ---   --   ---xx   drivebytruckers2008-06-01d01t05.flac
     7:13.20       76428284    ---   --   ---xx   drivebytruckers2008-06-01d01t06.flac
     6:05.43       64487180    ---   --   ---xx   drivebytruckers2008-06-01d01t07.flac
     4:01.70       42677084    ---   --   ---xx   drivebytruckers2008-06-01d01t08.flac
     6:00.37       63591068    ---   --   ---xx   drivebytruckers2008-06-01d01t09.flac
     5:35.53       59218700    ---   --   ---xx   drivebytruckers2008-06-01d01t10.flac
     2:40.45       28329884    ---   --   ---xx   drivebytruckers2008-06-01d01t11.flac
     5:37.53       59571500    ---   --   ---xx   drivebytruckers2008-06-01d01t12.flac
     4:20.42       45962828    ---   --   ---xx   drivebytruckers2008-06-01d01t13.flac
     8:20.22       88251788    ---   --   ---xx   drivebytruckers2008-06-01d01t14.flac
     5:30.14       58244972    ---   --   ---xx   drivebytruckers2008-06-01d01t15.flac
    77:37.11      821521332 B                     (totals for 15 files, 0.4865 overall compression ratio)


Show Checksums
ffp
drivebytruckers2008-06-01d01t01.flac:c910d0bcab5b90388ed02e9cd3dd0377
drivebytruckers2008-06-01d01t02.flac:37e5af5cb0444b44aa1de6413a729902
drivebytruckers2008-06-01d01t03.flac:9a89f3a3a06246811a48047436a130fd
drivebytruckers2008-06-01d01t04.flac:df605d8e4b4c1eedf06223dfdf953e25
drivebytruckers2008-06-01d01t05.flac:dd36ca04636c43c3e80cf789e70cfe29
drivebytruckers2008-06-01d01t06.flac:ff3845fbf3d91ae624fbc51d5ba95bf5
drivebytruckers2008-06-01d01t07.flac:6bc265df7924ccd037521d445f50f98d
drivebytruckers2008-06-01d01t08.flac:3481b934bfea7be6025c14483205bc95
drivebytruckers2008-06-01d01t09.flac:7c20708dd1052352f32f7f88f1637beb
drivebytruckers2008-06-01d01t10.flac:2c4abbddc276386c2bc701d0a1e7777f
drivebytruckers2008-06-01d01t11.flac:5d9bb8481f5b17b33cdde0891f067598
drivebytruckers2008-06-01d01t12.flac:11590ff6b50ed591e555ed9419e86380
drivebytruckers2008-06-01d01t13.flac:5cbc5c2c69f5721a87477307e88387f7
drivebytruckers2008-06-01d01t14.flac:c5c2bf8100e56e74bce08e18b66171c2
drivebytruckers2008-06-01d01t15.flac:0c916e8195dce472814a920f768d440f

Comments
Add Comment
Date User Comment