Browse Collections Artists Sources   Search Dates

Add Show    List Management    Help


Phish 11/02/89
University of New Hampshire, Durham, NH
Comments Add Comment    Source Collectors    Add to Collection    Add to Want List    History
Source # 92851 Other Sources
Entered by Matt Vernon
Checksums d1 , st5
Disc Counts 2 / 2
Media Size
Date Circulated
Date Added
07/16/2008
07/16/2008
Source Summary Tascam PE-120 mics -> Sony WMD-6C; Maxell XL-IIs 90's -> Cool Edit Pro 2 -> 16 bit 44.1khz .wav -> mkwACT -> .shn; Taped and Transfered by Tim Leavy 
Source Information - Download Text | Download Zip
PHISH - November 2nd, 1989
Granite State Room - Memorial Union Building, University of New Hampshire
Durham, NH

Recording Info:
Aud -> Tascam PE-120 mics -> Sony WMD-6C (Maxell XL-IIs 90's) ->
Cool Edit Pro 2 -> 16 bit 44.1khz .wav -> mkwACT -> .shn

Taped, transfered and remastered by Tim Leavy
[email protected]
July 16th, 2008

Notes:
-- There was a blown speaker in one of the PA stacks for the entire first set that makes
   the upper-mids a bit scrathcy at times. It was finally replaced between Golgi and YEM.
-- Tape flip in Reba
-- Due to time restrictions, there was no encore.
-- Discs 1 and 2 are seamless

DISC ONE
Set 1:
d1t01 - Bathtub Gin
d1t02 - Foam
d1t03 - Mike's Song >
d1t04 - I Am Hydrogen >
d1t05 - Weekapaug Groove
d1t06 - Fee
d1t07 - The Curtain
d1t08 - Reba*
d1t09 - Split Open and Melt
d1t10 - Esther

DISC TWO
d2t01 - Good Times Bad Times
Set 2:
d2t02 - Oh Kee Pa Ceremony
d2t03 - Golgi Apparatus
d2t04 - PA fix / Crew introduction
d2t05 - You Enjoy Myself
d2t06 - Kung
d2t07 - Divided Sky intro/Rhombus story
d2t08 - Divided Sky
d2t09 - McGrupp and the Watchful Hosemasters
d2t10 - AC/DC Bag
d2t11 - My Sweet One
d2t12 - Highway to Hell

*Cool early version with added structure

SHNTOOL OUTPUT:
    length     expanded size    cdr  WAVE problems  fmt   ratio  filename
     6:24.62       67883468 B   ---   --   -----    wav  1.0000  ph1989-11-02d1t01.wav
     8:09.15       86294924 B   ---   --   -----    wav  1.0000  ph1989-11-02d1t02.wav
    14:07.49      149526092 B   ---   --   -----    wav  1.0000  ph1989-11-02d1t03.wav
     2:20.33       24773660 B   ---   --   -----    wav  1.0000  ph1989-11-02d1t04.wav
     5:31.56       58520156 B   ---   --   -----    wav  1.0000  ph1989-11-02d1t05.wav
     5:17.15       55954124 B   ---   --   -----    wav  1.0000  ph1989-11-02d1t06.wav
     6:26.31       68163356 B   ---   --   -----    wav  1.0000  ph1989-11-02d1t07.wav
    13:38.29      144363452 B   ---   --   -----    wav  1.0000  ph1989-11-02d1t08.wav
     8:58.31       94976156 B   ---   --   -----    wav  1.0000  ph1989-11-02d1t09.wav
     8:53.46       94129436 B   ---   --   -----    wav  1.0000  ph1989-11-02d1t10.wav
     6:37.27       70094348 B   ---   --   -----    wav  1.0000  ph1989-11-02d2t01.wav
     2:32.16       26850476 B   ---   --   -----    wav  1.0000  ph1989-11-02d2t02.wav
     4:44.19       50142332 B   ---   --   -----    wav  1.0000  ph1989-11-02d2t03.wav
     3:59.70       42324284 B   ---   --   -----    wav  1.0000  ph1989-11-02d2t04.wav
    16:43.12      176957468 B   ---   --   -----    wav  1.0000  ph1989-11-02d2t05.wav
     1:47.57       19008908 B   ---   --   -----    wav  1.0000  ph1989-11-02d2t06.wav
     3:08.63       33311420 B   ---   --   -----    wav  1.0000  ph1989-11-02d2t07.wav
    12:03.63      127685420 B   ---   --   -----    wav  1.0000  ph1989-11-02d2t08.wav
     9:24.57       99623708 B   ---   --   -----    wav  1.0000  ph1989-11-02d2t09.wav
     7:13.39       76472972 B   ---   --   -----    wav  1.0000  ph1989-11-02d2t10.wav
     2:05.23       22104140 B   ---   --   -----    wav  1.0000  ph1989-11-02d2t11.wav
     4:12.70       44617484 B   ---   --   -----    wav  1.0000  ph1989-11-02d2t12.wav
   154:21.58     1633777784 B                            1.0000  (22 files)

41aff285f0d62f93c8c77eb282443229 *ph1989-11-02d1t01.shn
e8f58379e7f886878f367b0c36005c42 *ph1989-11-02d1t02.shn
57cb3bda8dd047155e6f7c13f2b3122d *ph1989-11-02d1t03.shn
b5db64a4c584a4848fabc839bdc03651 *ph1989-11-02d1t04.shn
77b60cd3acf0b1e49e5c8505ee1bee65 *ph1989-11-02d1t05.shn
145403c19b1ad6fc6e3931c94552a00e *ph1989-11-02d1t06.shn
b5e994edc949b5af5234908da67585bb *ph1989-11-02d1t07.shn
663c4cad61de8b0678f98bcce63c00a3 *ph1989-11-02d1t08.shn
489ce0a2e6f7aa955587e7fcf6754873 *ph1989-11-02d1t09.shn
47a4457dd4509d344a264d9b45e5f508 *ph1989-11-02d1t10.shn
c97460eea27fdc87ae6eec608756fe1a *ph1989-11-02d2t01.shn
477aa1fa5980fc7b973b5e353c390c89 *ph1989-11-02d2t02.shn
cfbd2472f93dcaae9ce8e810e08af19f *ph1989-11-02d2t03.shn
1d782e734b6761090c7f87fe167e2609 *ph1989-11-02d2t04.shn
ce9402504448c6784c5dfe9f209a4e3a *ph1989-11-02d2t05.shn
f5380f2cc952e8f0eef73548863695e3 *ph1989-11-02d2t06.shn
3f2685271be7b1ecead5e3501578f083 *ph1989-11-02d2t07.shn
d0b836bbd9214f9a1274d4f70f81e092 *ph1989-11-02d2t08.shn
88b5df7fa44b98400664738d94876368 *ph1989-11-02d2t09.shn
f49c69bf845db2e418e52df3d52bf4e2 *ph1989-11-02d2t10.shn
9d9aa1b20698c5cdbfe3161d5bc1018d *ph1989-11-02d2t11.shn
fc155942f50763cdd7eb2c120abb2ade *ph1989-11-02d2t12.shn




Show Checksums
d1
41aff285f0d62f93c8c77eb282443229 *ph1989-11-02d1t01.shn
e8f58379e7f886878f367b0c36005c42 *ph1989-11-02d1t02.shn
57cb3bda8dd047155e6f7c13f2b3122d *ph1989-11-02d1t03.shn
b5db64a4c584a4848fabc839bdc03651 *ph1989-11-02d1t04.shn
77b60cd3acf0b1e49e5c8505ee1bee65 *ph1989-11-02d1t05.shn
145403c19b1ad6fc6e3931c94552a00e *ph1989-11-02d1t06.shn
b5e994edc949b5af5234908da67585bb *ph1989-11-02d1t07.shn
663c4cad61de8b0678f98bcce63c00a3 *ph1989-11-02d1t08.shn
489ce0a2e6f7aa955587e7fcf6754873 *ph1989-11-02d1t09.shn
47a4457dd4509d344a264d9b45e5f508 *ph1989-11-02d1t10.shn
c97460eea27fdc87ae6eec608756fe1a *ph1989-11-02d2t01.shn
477aa1fa5980fc7b973b5e353c390c89 *ph1989-11-02d2t02.shn
cfbd2472f93dcaae9ce8e810e08af19f *ph1989-11-02d2t03.shn
1d782e734b6761090c7f87fe167e2609 *ph1989-11-02d2t04.shn
ce9402504448c6784c5dfe9f209a4e3a *ph1989-11-02d2t05.shn
f5380f2cc952e8f0eef73548863695e3 *ph1989-11-02d2t06.shn
3f2685271be7b1ecead5e3501578f083 *ph1989-11-02d2t07.shn
d0b836bbd9214f9a1274d4f70f81e092 *ph1989-11-02d2t08.shn
88b5df7fa44b98400664738d94876368 *ph1989-11-02d2t09.shn
f49c69bf845db2e418e52df3d52bf4e2 *ph1989-11-02d2t10.shn
9d9aa1b20698c5cdbfe3161d5bc1018d *ph1989-11-02d2t11.shn
fc155942f50763cdd7eb2c120abb2ade *ph1989-11-02d2t12.shn
st5
16ea9a9d484014f392aab1fceb6e1b26 [shntool] ph1989-11-02d1t01.shn
a6a5dcc9ceb79cae0dda7a96270bf6ae [shntool] ph1989-11-02d1t02.shn
96e2d7433523fccac951711969a9e860 [shntool] ph1989-11-02d1t03.shn
8613bdbb6b12d9599a6bc646c22fe78c [shntool] ph1989-11-02d1t04.shn
7aad370e4d75cda5310592820bd4b6d5 [shntool] ph1989-11-02d1t05.shn
4067131574b49a39c58e2fd021e771f5 [shntool] ph1989-11-02d1t06.shn
1f8457ca5db50fa942c795bf5e5bf798 [shntool] ph1989-11-02d1t07.shn
0e7a6aa4264c57b8cf07632c12c31497 [shntool] ph1989-11-02d1t08.shn
ceec60ee583a33051723b56da31d6832 [shntool] ph1989-11-02d1t09.shn
928887a79384767de71ab66b957d2980 [shntool] ph1989-11-02d1t10.shn
6f322916971682a0e8df85e87919a238 [shntool] ph1989-11-02d2t01.shn
f524da6beddaf10989b8af691f4d9386 [shntool] ph1989-11-02d2t02.shn
7cca2ec2f7459143913b247b606bd8a3 [shntool] ph1989-11-02d2t03.shn
241d29afbad9c13c368074582cbf9a3a [shntool] ph1989-11-02d2t04.shn
8a0fdd0323b86b7e154f289986628ad4 [shntool] ph1989-11-02d2t05.shn
0a3aab4383523fd755ee4af7675ee32e [shntool] ph1989-11-02d2t06.shn
0ec4ab7b2e7db42cceb98e09b8caade7 [shntool] ph1989-11-02d2t07.shn
4b0301dbb6406e46bba685ebc49391ef [shntool] ph1989-11-02d2t08.shn
56fdaa49078156f0832821f4706e9cf2 [shntool] ph1989-11-02d2t09.shn
7edf18de1602e425c4fc722ddadf412c [shntool] ph1989-11-02d2t10.shn
406bcd7312edbdc056574c2195c56af2 [shntool] ph1989-11-02d2t11.shn
a20af2d1f4d8618a9b9d08811d97a3fc [shntool] ph1989-11-02d2t12.shn

Comments
Add Comment
Other Sources (comments)
Unknown; CDR > EAC > mkwACT... (0)
Date User Comment