Browse Collections Artists Sources   Search Dates

Add Show    List Management    Help


Grateful Dead 11/20/71
Pauley Pavilion, UCLA, Los Angeles, CA
Comments Add Comment    Source Collectors    Add to Collection    Add to Want List    History
Source # 92908 Other Sources
Entered by Matt Vernon
Checksums flac-md5 , ffp
Disc Counts 2 / 2
Media Size
Date Circulated
Date Added

07/18/2008
Source Summary flac16; Recording Info:SBD -> Master Reel -> Cassette -> Dat (48k);Transfer Info:Dat (Sony R500) -> VXPocket v2 -> Samplitude Professional v10.1 -> FLAC; All Transfers and Mastering By Charlie Miller 
  Archive
Source Information - Download Text | Download Zip
Grateful Dead - November 20, 1971
Pauley Pavilion - Los Angeles, CA
University of California

Recording Info:
SBD -> Master Reel -> Cassette -> Dat (48k)

Transfer Info:
Dat (Sony R500) -> VXPocket v2 -> Samplitude Professional v10.1 -> FLAC
(2 Discs Audio / 2 Discs FLAC)

All Transfers and Mastering By Charlie Miller
[email protected]
July 18, 2008

Patch Info:
FM -> ? -> Reel -> Dat -> CD (shnid=8806) supplies:
Truckin' (0:00 - 0:37)

Notes:
-- Thanks to Rob Eaton for lending me his Dats
-- This is a SBD from the GD Vault, not an FM
-- First few notes of Bertha are missing
-- First few notes of Cumberland Blues are missing

Set 1:
d1t01 - Bertha
d1t02 - Me And My Uncle
d1t03 - Sugaree
d1t04 - Beat It On Down The Line
d1t05 - Tennessee Jed
d1t06 - Mexicali Blues
d1t07 - Brown Eyed Women
d1t08 - El Paso
d1t09 - Big Railroad Blues
d1t10 - Jack Straw
d1t11 - Cumberland Blues
d1t12 - Playing In The Band
d1t13 - Casey Jones
d1t14 - One More Saturday Night

Set 2:
d2t01 - Truckin' ->
d2t02 - Drums ->
d2t03 - The Other One ->
d2t04 - Ramble On Rose
d2t05 - Sugar Magnolia
d2t06 - You Win Again
d2t07 - Not Fade Away ->
d2t08 - China Cat Sunflower Jam ->
d2t09 - Goin' Down The Road Feeling Bad ->
d2t10 - Not Fade Away


SHNTOOL OUTPUT:
    length     expanded size   cdr  WAVE problems filename
     6:45.50       71559644    ---   --   -----   gd71-11-20d1t01.wav
     3:02.59       32243612    ---   --   -----   gd71-11-20d1t02.wav
     6:35.18       69720380    ---   --   -----   gd71-11-20d1t03.wav
     3:34.45       37855484    ---   --   -----   gd71-11-20d1t04.wav
     6:48.20       72018284    ---   --   -----   gd71-11-20d1t05.wav
     3:39.38       38721020    ---   --   -----   gd71-11-20d1t06.wav
     7:47.63       82527020    ---   --   -----   gd71-11-20d1t07.wav
     6:10.04       65277452    ---   --   -----   gd71-11-20d1t08.wav
     3:23.13       35839820    ---   --   -----   gd71-11-20d1t09.wav
     4:43.71       50088236    ---   --   -----   gd71-11-20d1t10.wav
     5:34.44       59021132    ---   --   -----   gd71-11-20d1t11.wav
     7:02.73       74612540    ---   --   -----   gd71-11-20d1t12.wav
     5:35.02       59098748    ---   --   -----   gd71-11-20d1t13.wav
     4:38.67       49196828    ---   --   -----   gd71-11-20d1t14.wav
     8:48.35       93221564    ---   --   -----   gd71-11-20d2t01.wav
     2:06.29       22294652    ---   --   -----   gd71-11-20d2t02.wav
    23:09.25      245078444    ---   --   -----   gd71-11-20d2t03.wav
     6:27.33       68344460    ---   --   -----   gd71-11-20d2t04.wav
     8:34.46       90777836    ---   --   -----   gd71-11-20d2t05.wav
     4:43.42       50020028    ---   --   -----   gd71-11-20d2t06.wav
     4:53.35       51767564    ---   --   -----   gd71-11-20d2t07.wav
     1:33.41       16501676    ---   --   -----   gd71-11-20d2t08.wav
     7:52.47       83371388    ---   --   -----   gd71-11-20d2t09.wav
     2:59.19       31620332    ---   --   -----   gd71-11-20d2t10.wav
   146:31.19     1550778144 B                     (totals for 24 files)
Show Checksums
flac-md5
b5ff4b48cd84fb9cb3d84eba4c3be864 *gd71-11-20d1t01.flac
be1c898e59a685ae2e9545247ec10462 *gd71-11-20d1t02.flac
23d49ce9bc4ce0543d05938d081ae453 *gd71-11-20d1t03.flac
40809cf774a87d4a307a8f07d39ad2bb *gd71-11-20d1t04.flac
326e00f094ec2a6d1b6c5f3ff676cb63 *gd71-11-20d1t05.flac
0b64d5743dd74daa2eb2c808c243ec46 *gd71-11-20d1t06.flac
444556b6b0604ac0a0b7213eed353a61 *gd71-11-20d1t07.flac
f6ec2e3cde1194f4822ea0a1fa553622 *gd71-11-20d1t08.flac
2f610893dd16d9b96b1c1cdc88f09009 *gd71-11-20d1t09.flac
51c01caca0ef851108beb3685fe9ab8b *gd71-11-20d1t10.flac
4caa69278485b5fdc4b749bc222019fa *gd71-11-20d1t11.flac
e74f4264e81928a1637143260a9b2985 *gd71-11-20d1t12.flac
86477334ce9d61a4ac713454fd5b8b9d *gd71-11-20d1t13.flac
891c2656c1c1dce2a638f9e2767d6f06 *gd71-11-20d1t14.flac
1b5ef3ba7b1d7067447d874eabbfeb01 *gd71-11-20d2t01.flac
8afcd61a010fcc1e11e3dc1cc43aded2 *gd71-11-20d2t02.flac
f7ae9b2f8aacdc34bd643d0685411bfa *gd71-11-20d2t03.flac
8b5d73d983949e1bf375aa51188b9d5b *gd71-11-20d2t04.flac
1e7fb26e07f67a2eb4b33af1081dbbcd *gd71-11-20d2t05.flac
263dc7ac38313ed2ded422738fc110dd *gd71-11-20d2t06.flac
759939dd3970ede3d2b00dc0e6fe85bc *gd71-11-20d2t07.flac
bfa36194df29038201c2bd805fa17134 *gd71-11-20d2t08.flac
93a942d95f46415626bfa9310ceffe7a *gd71-11-20d2t09.flac
40b1fb88141d95af5f30d50b2dd7f1d0 *gd71-11-20d2t10.flac
ffp
gd71-11-20d1t01.flac:95f58cc3f39cae2142569e62c572bc9f
gd71-11-20d1t02.flac:91ce4dbf10462704ee7d34b2f6014aff
gd71-11-20d1t03.flac:6c955cc62f53829f8f585483e8e4bd70
gd71-11-20d1t04.flac:dc1e602ec694f35bd1c35ca467858853
gd71-11-20d1t05.flac:f2c9f85c36311a97042a1951b33c53f9
gd71-11-20d1t06.flac:efa97c6e64f6cd4e6352f839b07b88c9
gd71-11-20d1t07.flac:18c197f7858338d26306791b1aab84b3
gd71-11-20d1t08.flac:47b1f87aa56b5e2560892470330e0082
gd71-11-20d1t09.flac:670a4ec305fdf6c4cd0a7e7361707daa
gd71-11-20d1t10.flac:78759a1d12583e5baac155565c2ebe08
gd71-11-20d1t11.flac:932b569ff424ce230b09765b493ad817
gd71-11-20d1t12.flac:59ba9e8449ba0d2adfca1053a47a5af1
gd71-11-20d1t13.flac:925258baa89f70c07c97d1c9346a47ed
gd71-11-20d1t14.flac:7601dc97da8bdd64918c4dd7f9360861
gd71-11-20d2t01.flac:d9655c2b7f5a09e6e9ef5d7f3973a70c
gd71-11-20d2t02.flac:95d1c8b8aad4353c91b6ed64893b1507
gd71-11-20d2t03.flac:5ab9c110d0bd85c4ba1ee1e9c00ce988
gd71-11-20d2t04.flac:b3518d7877a8de3423954b416d546c71
gd71-11-20d2t05.flac:fb6f0cf7484eec0333e3bfde33901bcd
gd71-11-20d2t06.flac:12db61ff581d87759d006c5b5d1279ad
gd71-11-20d2t07.flac:fc522d58aa184036db2f47bc8460871e
gd71-11-20d2t08.flac:aff552759f046d43d686dec0c5224463
gd71-11-20d2t09.flac:f0c8d4893ae91cc99a93cb43bfbbb6e1
gd71-11-20d2t10.flac:2e2f0c8a51157b02428665e99e043bf6

Comments
Add Comment
Other Sources (comments)
SBD>FM>R>DAT>CDR; via Rick... (0)
Date User Comment