Browse Collections Artists Sources   Search Dates

Add Show    List Management    Help


Grateful Dead 08/31/79
Glens Falls Civic Center, Glens Falls, NY
Comments Add Comment    Source Collectors    Add to Collection    Add to Want List    History
Source # 92924 Other Sources
Entered by Matt Vernon
Checksums ffp , flac-md5
Disc Counts 2 / 3
Media Size
Date Circulated
Date Added
07/18/2008
07/18/2008
Source Summary flac16; Recording Info: SBD -> Cassette Master -> Reel -> Dat (48k) Transfer Info: Dat (Sony R500) -> VXPocket v2 -> Samplitude Professional v10.1 -> Adobe Audition v1.5 -> FLAC; All Transfers and Mastering By Charlie Miller 
  Archive
Source Information - Download Text | Download Zip
Grateful Dead - August 31, 1979
Civic Center - Glens Falls, NY

Recording Info:
SBD -> Cassette Master -> Reel -> Dat (48k)

Transfer Info:
Dat (Sony R500) -> VXPocket v2 -> Samplitude Professional v10.1 ->
Adobe Audition v1.5 -> FLAC (3 Discs Audio / 2 Discs FLAC)

All Transfers and Mastering By Charlie Miller
[email protected]
July 18, 2008

Patch Info:
Nakamichi 300 -> Cassette Master -> Dat -> CD (shnid=9973) supplies:
The Promised Land (0:00 - 0:27)
Peggy-O (4:06 - 4:17)
Minglewood Blues (1:28 - 2:17)
Estimated Prophet (10:36 - end of track)
Eyes Of The World (0:00 - 8:43)

Notes:
-- Set 2 is seamless
-- Thanks to Rob Eaton for lending me his Dats
-- Thanks to Joe B. Jones for his help with the pitch correction

Set 1:
d1t01 - The Promised Land
d1t02 - Dire Wolf
d1t03 - Cassidy
d1t04 - Loser
d1t05 - El Paso
d1t06 - Peggy-O
d1t07 - Easy To Love You
d1t08 - New Minglewood Blues
d1t09 - Althea
d1t10 - Lost Sailor ->
d1t11 - Saint Of Circumstance ->
d1t12 - Deal

Set 2:
d2t01 - Shakedown Street
d2t02 - Greatest Story Ever Told
d2t03 - Ship Of Fools
d3t01 - Estimated Prophet ->
d3t02 - Eyes Of The World ->
d3t03 - Drums ->
d3t04 - Not Fade Away ->
d3t05 - Black Peter ->
d3t06 - Around And Around


SHNTOOL OUTPUT:
    length     expanded size   cdr  WAVE problems filename
     5:56.31       62871356    ---   --   -----   gd79-08-31d1t01.wav
     4:42.55       49874204    ---   --   -----   gd79-08-31d1t02.wav
     6:51.04       72509852    ---   --   -----   gd79-08-31d1t03.wav
     7:20.54       77743052    ---   --   -----   gd79-08-31d1t04.wav
     5:04.66       53780876    ---   --   -----   gd79-08-31d1t05.wav
     6:53.54       72980252    ---   --   -----   gd79-08-31d1t06.wav
     3:48.09       40240412    ---   --   -----   gd79-08-31d1t07.wav
     8:24.26       88966796    ---   --   -----   gd79-08-31d1t08.wav
    10:21.74      109718492    ---   --   -----   gd79-08-31d1t09.wav
     6:01.64       63830972    ---   --   -----   gd79-08-31d1t10.wav
     5:43.63       60653420    ---   --   -----   gd79-08-31d1t11.wav
     5:38.70       59787884    ---   --   -----   gd79-08-31d1t12.wav
    14:17.62      151320668    ---   --   -----   gd79-08-31d2t01.wav
     5:24.18       57195980    ---   --   -----   gd79-08-31d2t02.wav
     7:35.11       80287916    ---   --   -----   gd79-08-31d2t03.wav
    12:07.31      128315756    ---   --   -----   gd79-08-31d3t01.wav
    13:40.67      144805628    ---   --   -----   gd79-08-31d3t02.wav
     9:11.47       97306988    ---   --   -----   gd79-08-31d3t03.wav
    13:27.74      142528892    ---   --   -----   gd79-08-31d3t04.wav
    10:06.05      106910204    ---   --   -----   gd79-08-31d3t05.wav
     8:09.65       86412524    ---   --   -----   gd79-08-31d3t06.wav
   170:49.50     1808042124 B                     (totals for 21 files)
Show Checksums
ffp
gd79-08-31d1t01.flac:368c02d42ccfe108893863af9c1d2583
gd79-08-31d1t02.flac:69b36e1ba92cd267161f6a1d49892818
gd79-08-31d1t03.flac:d08b411d0bd0274e175e6db1dee62e6d
gd79-08-31d1t04.flac:176becdd6f512deb3ec9a4b1732b95ec
gd79-08-31d1t05.flac:0599f06a272c87e98c70b30fc599f195
gd79-08-31d1t06.flac:66c8f213c3733d73a9d3f59425fd9fb6
gd79-08-31d1t07.flac:8a6e019bcd60884af6397cf91e5677ce
gd79-08-31d1t08.flac:5d7e8e4194e2dab95f7c53894860e65a
gd79-08-31d1t09.flac:ee69357cae61268b703032d174203c46
gd79-08-31d1t10.flac:2a4868c4aa49e2d2c12bfdadcd6a728f
gd79-08-31d1t11.flac:f4564868ce1056b08f84a768c260f3ff
gd79-08-31d1t12.flac:a236b97e016180557403e440782422a6
gd79-08-31d2t01.flac:446fbd53e2693e62b8805f44874a6963
gd79-08-31d2t02.flac:1993bee1eef6cb7db0fad1f6137f4a5b
gd79-08-31d2t03.flac:164a81d213225cd9df4c985e30a0573b
gd79-08-31d3t01.flac:a201156be30f1874934588e55ad4d976
gd79-08-31d3t02.flac:46fed7d5b2c1862322674c4622e2407e
gd79-08-31d3t03.flac:86df425985c224e79ff25b757252a9f3
gd79-08-31d3t04.flac:5e0922be4e81569f55a15e94ae6e3290
gd79-08-31d3t05.flac:907bc83a26dc8594448f57a7ca2473c8
gd79-08-31d3t06.flac:0700a01459259db45be0963d46d304de
flac-md5
808549ae3bad07fd1e9e11838702b36a *gd79-08-31d1t01.flac
fb6000aa633f1e8a887b3e40b7d4b4d4 *gd79-08-31d1t02.flac
2877951b6888098e4f4efa6375c46a2c *gd79-08-31d1t03.flac
678c28af95e5f6cb3d1f724c884f5b0e *gd79-08-31d1t04.flac
9650b8284f78963b42ebebd0909ee231 *gd79-08-31d1t05.flac
4ac91a26ead714a36feb3264991fa65c *gd79-08-31d1t06.flac
8cd4b601f3465fcb2b35998467615260 *gd79-08-31d1t07.flac
0ffe2edc976945c0e50caefa1cfc6ca8 *gd79-08-31d1t08.flac
32592fd06a84c665a5bc925260100533 *gd79-08-31d1t09.flac
2a85486c8b4128dc7de77b737e08d55d *gd79-08-31d1t10.flac
e0f7fc9aa44cbf81187c66c38ad928a6 *gd79-08-31d1t11.flac
1dc7123920b84550dffbd81033274de6 *gd79-08-31d1t12.flac
eba4ab34415f9fd5811f354fe87f7af0 *gd79-08-31d2t01.flac
8a2c14d76d57d629fe2d81dc0b5003fd *gd79-08-31d2t02.flac
3272aba649cdf1dfb43d234b5fc542e8 *gd79-08-31d2t03.flac
b70190cd40ebabd07184f3e758d296f8 *gd79-08-31d3t01.flac
6c76a405fb28783d812cf237838fc63d *gd79-08-31d3t02.flac
3623523053bcd80c5edc102254757e64 *gd79-08-31d3t03.flac
25b6b410ac4abfa9e42dc9b24bc527e9 *gd79-08-31d3t04.flac
97888700eab963948b8958d09580fda4 *gd79-08-31d3t05.flac
bcfefead7eede42d2825706db641f895 *gd79-08-31d3t06.flac

Comments
Add Comment
Other Sources (comments)
AUD(Nak 300's)>MC>DAT>CDR;... (0) flac16; AUD: Set... (0) flac16; 2 source... (0)
Date User Comment